  0
SECTION
  2
HEADER
  9
$ACADVER
  1
AC1018
  9
$ACADMAINTVER
 70
     0
  9
$DWGCODEPAGE
  3
ANSI_1252
  9
$INSBASE
 10
0.0
 20
0.0
 30
0.0
  9
$EXTMIN
 10
-22.64379001429631
 20
774.9125702980463
 30
0.0
  9
$EXTMAX
 10
274.3562099857018
 20
984.9125702980464
 30
0.0
  9
$LIMMIN
 10
0.0
 20
0.0
  9
$LIMMAX
 10
12.0
 20
9.0
  9
$ORTHOMODE
 70
     0
  9
$REGENMODE
 70
     1
  9
$FILLMODE
 70
     1
  9
$QTEXTMODE
 70
     0
  9
$MIRRTEXT
 70
     1
  9
$LTSCALE
 40
1.0
  9
$ATTMODE
 70
     1
  9
$TEXTSIZE
 40
0.2
  9
$TRACEWID
 40
0.05
  9
$TEXTSTYLE
  7
Standard
  9
$CLAYER
  8
0
  9
$CELTYPE
  6
ByLayer
  9
$CECOLOR
 62
   256
  9
$CELTSCALE
 40
1.0
  9
$DISPSILH
 70
     0
  9
$DIMSCALE
 40
1.0
  9
$DIMASZ
 40
0.18
  9
$DIMEXO
 40
0.0625
  9
$DIMDLI
 40
0.38
  9
$DIMRND
 40
0.0
  9
$DIMDLE
 40
0.0
  9
$DIMEXE
 40
0.18
  9
$DIMTP
 40
0.0
  9
$DIMTM
 40
0.0
  9
$DIMTXT
 40
0.18
  9
$DIMCEN
 40
0.09
  9
$DIMTSZ
 40
0.0
  9
$DIMTOL
 70
     0
  9
$DIMLIM
 70
     0
  9
$DIMTIH
 70
     1
  9
$DIMTOH
 70
     1
  9
$DIMSE1
 70
     0
  9
$DIMSE2
 70
     0
  9
$DIMTAD
 70
     0
  9
$DIMZIN
 70
     0
  9
$DIMBLK
  1

  9
$DIMASO
 70
     1
  9
$DIMSHO
 70
     1
  9
$DIMPOST
  1

  9
$DIMAPOST
  1

  9
$DIMALT
 70
     0
  9
$DIMALTD
 70
     2
  9
$DIMALTF
 40
25.4
  9
$DIMLFAC
 40
1.0
  9
$DIMTOFL
 70
     0
  9
$DIMTVP
 40
0.0
  9
$DIMTIX
 70
     0
  9
$DIMSOXD
 70
     0
  9
$DIMSAH
 70
     0
  9
$DIMBLK1
  1

  9
$DIMBLK2
  1

  9
$DIMSTYLE
  2
Standard
  9
$DIMCLRD
 70
     0
  9
$DIMCLRE
 70
     0
  9
$DIMCLRT
 70
     0
  9
$DIMTFAC
 40
1.0
  9
$DIMGAP
 40
0.09
  9
$DIMJUST
 70
     0
  9
$DIMSD1
 70
     0
  9
$DIMSD2
 70
     0
  9
$DIMTOLJ
 70
     1
  9
$DIMTZIN
 70
     0
  9
$DIMALTZ
 70
     0
  9
$DIMALTTZ
 70
     0
  9
$DIMUPT
 70
     0
  9
$DIMDEC
 70
     4
  9
$DIMTDEC
 70
     4
  9
$DIMALTU
 70
     2
  9
$DIMALTTD
 70
     2
  9
$DIMTXSTY
  7
Standard
  9
$DIMAUNIT
 70
     0
  9
$DIMADEC
 70
     0
  9
$DIMALTRND
 40
0.0
  9
$DIMAZIN
 70
     0
  9
$DIMDSEP
 70
    46
  9
$DIMATFIT
 70
     3
  9
$DIMFRAC
 70
     0
  9
$DIMLDRBLK
  1

  9
$DIMLUNIT
 70
     2
  9
$DIMLWD
 70
    -2
  9
$DIMLWE
 70
    -2
  9
$DIMTMOVE
 70
     0
  9
$LUNITS
 70
     2
  9
$LUPREC
 70
     4
  9
$SKETCHINC
 40
0.1
  9
$FILLETRAD
 40
0.5
  9
$AUNITS
 70
     0
  9
$AUPREC
 70
     0
  9
$MENU
  1
.
  9
$ELEVATION
 40
0.0
  9
$PELEVATION
 40
0.0
  9
$THICKNESS
 40
0.0
  9
$LIMCHECK
 70
     0
  9
$CHAMFERA
 40
0.5
  9
$CHAMFERB
 40
0.5
  9
$CHAMFERC
 40
1.0
  9
$CHAMFERD
 40
0.0
  9
$SKPOLY
 70
     0
  9
$TDCREATE
 40
2458158.747523021
  9
$TDUCREATE
 40
2458158.705856354
  9
$TDUPDATE
 40
2458158.747523739
  9
$TDUUPDATE
 40
2458158.705857072
  9
$TDINDWG
 40
0.0000000116
  9
$TDUSRTIMER
 40
0.0000000116
  9
$USRTIMER
 70
     1
  9
$ANGBASE
 50
0.0
  9
$ANGDIR
 70
     0
  9
$PDMODE
 70
     0
  9
$PDSIZE
 40
0.0
  9
$PLINEWID
 40
0.0
  9
$SPLFRAME
 70
     0
  9
$SPLINETYPE
 70
     6
  9
$SPLINESEGS
 70
     8
  9
$HANDSEED
  5
49C
  9
$SURFTAB1
 70
     6
  9
$SURFTAB2
 70
     6
  9
$SURFTYPE
 70
     6
  9
$SURFU
 70
     6
  9
$SURFV
 70
     6
  9
$UCSBASE
  2

  9
$UCSNAME
  2

  9
$UCSORG
 10
0.0
 20
0.0
 30
0.0
  9
$UCSXDIR
 10
1.0
 20
0.0
 30
0.0
  9
$UCSYDIR
 10
0.0
 20
1.0
 30
0.0
  9
$UCSORTHOREF
  2

  9
$UCSORTHOVIEW
 70
     0
  9
$UCSORGTOP
 10
0.0
 20
0.0
 30
0.0
  9
$UCSORGBOTTOM
 10
0.0
 20
0.0
 30
0.0
  9
$UCSORGLEFT
 10
0.0
 20
0.0
 30
0.0
  9
$UCSORGRIGHT
 10
0.0
 20
0.0
 30
0.0
  9
$UCSORGFRONT
 10
0.0
 20
0.0
 30
0.0
  9
$UCSORGBACK
 10
0.0
 20
0.0
 30
0.0
  9
$PUCSBASE
  2

  9
$PUCSNAME
  2

  9
$PUCSORG
 10
0.0
 20
0.0
 30
0.0
  9
$PUCSXDIR
 10
1.0
 20
0.0
 30
0.0
  9
$PUCSYDIR
 10
0.0
 20
1.0
 30
0.0
  9
$PUCSORTHOREF
  2

  9
$PUCSORTHOVIEW
 70
     0
  9
$PUCSORGTOP
 10
0.0
 20
0.0
 30
0.0
  9
$PUCSORGBOTTOM
 10
0.0
 20
0.0
 30
0.0
  9
$PUCSORGLEFT
 10
0.0
 20
0.0
 30
0.0
  9
$PUCSORGRIGHT
 10
0.0
 20
0.0
 30
0.0
  9
$PUCSORGFRONT
 10
0.0
 20
0.0
 30
0.0
  9
$PUCSORGBACK
 10
0.0
 20
0.0
 30
0.0
  9
$USERI1
 70
     0
  9
$USERI2
 70
     0
  9
$USERI3
 70
     0
  9
$USERI4
 70
     0
  9
$USERI5
 70
     0
  9
$USERR1
 40
18.1
  9
$USERR2
 40
0.0
  9
$USERR3
 40
0.0
  9
$USERR4
 40
0.0
  9
$USERR5
 40
0.0
  9
$WORLDVIEW
 70
     1
  9
$SHADEDGE
 70
     3
  9
$SHADEDIF
 70
    70
  9
$TILEMODE
 70
     1
  9
$MAXACTVP
 70
    64
  9
$PINSBASE
 10
0.0
 20
0.0
 30
0.0
  9
$PLIMCHECK
 70
     0
  9
$PEXTMIN
 10
1.00000000000000E+20
 20
1.00000000000000E+20
 30
1.00000000000000E+20
  9
$PEXTMAX
 10
-1.00000000000000E+20
 20
-1.00000000000000E+20
 30
-1.00000000000000E+20
  9
$PLIMMIN
 10
0.0
 20
0.0
  9
$PLIMMAX
 10
12.0
 20
9.0
  9
$UNITMODE
 70
     0
  9
$VISRETAIN
 70
     1
  9
$PLINEGEN
 70
     0
  9
$PSLTSCALE
 70
     1
  9
$TREEDEPTH
 70
  3020
  9
$CMLSTYLE
  2
Standard
  9
$CMLJUST
 70
     0
  9
$CMLSCALE
 40
1.0
  9
$PROXYGRAPHICS
 70
     1
  9
$MEASUREMENT
 70
     1
  9
$CELWEIGHT
370
    -1
  9
$ENDCAPS
280
     0
  9
$JOINSTYLE
280
     0
  9
$LWDISPLAY
290
     0
  9
$INSUNITS
 70
     4
  9
$HYPERLINKBASE
  1

  9
$STYLESHEET
  1

  9
$XEDIT
290
     1
  9
$CEPSNTYPE
380
     0
  9
$PSTYLEMODE
290
     1
  9
$FINGERPRINTGUID
  2
{287B727D-C1EE-4E8B-A33B-8766DA72C5A7}
  9
$VERSIONGUID
  2
{FAEB1C32-E019-11D5-929B-00C0DF256EC4}
  9
$EXTNAMES
290
     1
  9
$PSVPSCALE
 40
0.0
  9
$OLESTARTUP
290
     0
  9
$SORTENTS
280
   127
  9
$INDEXCTL
280
     0
  9
$HIDETEXT
280
     1
  9
$XCLIPFRAME
290
     0
  9
$HALOGAP
280
     0
  9
$OBSCOLOR
 70
   257
  9
$OBSLTYPE
280
     0
  9
$INTERSECTIONDISPLAY
280
     0
  9
$INTERSECTIONCOLOR
 70
   257
  9
$DIMASSOC
280
     2
  9
$PROJECTNAME
  1

  0
ENDSEC
  0
SECTION
  2
CLASSES
  0
CLASS
  1
ACDBDICTIONARYWDFLT
  2
AcDbDictionaryWithDefault
  3
ObjectDBX Classes
 90
        0
 91
        4
280
     0
281
     0
  0
CLASS
  1
VISUALSTYLE
  2
AcDbVisualStyle
  3
ObjectDBX Classes
 90
     4095
 91
        4
280
     0
281
     0
  0
CLASS
  1
MATERIAL
  2
AcDbMaterial
  3
ObjectDBX Classes
 90
     1153
 91
        4
280
     0
281
     0
  0
ENDSEC
  0
SECTION
  2
TABLES
  0
TABLE
  2
VPORT
  5
8
330
0
100
AcDbSymbolTable
 70
     1
  0
VPORT
  5
29
330
8
100
AcDbSymbolTableRecord
100
AcDbViewportTableRecord
  2
*Active
 70
     0
 10
0.0
 20
0.0
 11
1.0
 21
1.0
 12
125.8562099857027
 22
879.9125702980464
 13
0.0
 23
0.0
 14
0.5
 24
0.5
 15
0.5
 25
0.5
 16
0.0
 26
0.0
 36
1.0
 17
0.0
 27
0.0
 37
0.0
 40
231.0000000000001
 41
1.60267857142857
 42
50.0
 43
0.0
 44
0.0
 50
0.0
 51
0.0
 71
     0
 72
   100
 73
     1
 74
     3
 75
     0
 76
     0
 77
     0
 78
     0
281
     0
 65
     1
110
0.0
120
0.0
130
0.0
111
1.0
121
0.0
131
0.0
112
0.0
122
1.0
132
0.0
 79
     0
146
0.0
  0
ENDTAB
  0
TABLE
  2
LTYPE
  5
5
330
0
100
AcDbSymbolTable
 70
     8
  0
LTYPE
  5
14
330
5
100
AcDbSymbolTableRecord
100
AcDbLinetypeTableRecord
  2
ByBlock
 70
     0
  3

 72
    65
 73
     0
 40
0.0
  0
LTYPE
  5
15
330
5
100
AcDbSymbolTableRecord
100
AcDbLinetypeTableRecord
  2
ByLayer
 70
     0
  3

 72
    65
 73
     0
 40
0.0
  0
LTYPE
  5
16
330
5
100
AcDbSymbolTableRecord
100
AcDbLinetypeTableRecord
  2
Continuous
 70
     0
  3
Solid line
 72
    65
 73
     0
 40
0.0
  0
LTYPE
  5
3F
330
5
100
AcDbSymbolTableRecord
100
AcDbLinetypeTableRecord
  2
DASHED
 70
     0
  3
Dashed
 72
    65
 73
     2
 40
15.0
 49
7.0
 74
     0
 49
-8.0
 74
     0
  0
LTYPE
  5
40
330
5
100
AcDbSymbolTableRecord
100
AcDbLinetypeTableRecord
  2
DOTTED
 70
     0
  3
Dotted
 72
    65
 73
     2
 40
1.0
 49
0.0
 74
     0
 49
-1.0
 74
     0
  0
LTYPE
  5
41
330
5
100
AcDbSymbolTableRecord
100
AcDbLinetypeTableRecord
  2
DOT_CENTER
 70
     0
  3
Dot_Center
 72
    65
 73
     4
 40
14.0
 49
12.0
 74
     0
 49
-1.0
 74
     0
 49
0.0
 74
     0
 49
-1.0
 74
     0
  0
LTYPE
  5
42
330
5
100
AcDbSymbolTableRecord
100
AcDbLinetypeTableRecord
  2
LONG_DASHED
 70
     0
  3
Long_Dashed
 72
    65
 73
     2
 40
15.0
 49
10.0
 74
     0
 49
-5.0
 74
     0
  0
LTYPE
  5
43
330
5
100
AcDbSymbolTableRecord
100
AcDbLinetypeTableRecord
  2
DASH_CENTER
 70
     0
  3
Dash_Center
 72
    65
 73
     4
 40
14.0
 49
11.0
 74
     0
 49
-1.0
 74
     0
 49
1.0
 74
     0
 49
-1.0
 74
     0
  0
LTYPE
  5
44
330
5
100
AcDbSymbolTableRecord
100
AcDbLinetypeTableRecord
  2
PHANTOM
 70
     0
  3
Phantom
 72
    65
 73
     6
 40
13.0
 49
10.0
 74
     0
 49
-1.0
 74
     0
 49
0.0
 74
     0
 49
-1.0
 74
     0
 49
0.0
 74
     0
 49
-1.0
 74
     0
  0
LTYPE
  5
45
330
5
100
AcDbSymbolTableRecord
100
AcDbLinetypeTableRecord
  2
CENTER_DASH_DASH
 70
     0
  3
Center_Dash_Dash
 72
    65
 73
     6
 40
14.0
 49
9.0
 74
     0
 49
-1.0
 74
     0
 49
1.0
 74
     0
 49
-1.0
 74
     0
 49
1.0
 74
     0
 49
-1.0
 74
     0
  0
ENDTAB
  0
TABLE
  2
LAYER
  5
2
330
0
100
AcDbSymbolTable
 70
     2
  0
LAYER
  5
10
330
2
100
AcDbSymbolTableRecord
100
AcDbLayerTableRecord
  2
0
 70
     0
 62
     7
  6
Continuous
370
    -3
390
F
  0
LAYER
  5
46
330
2
100
AcDbSymbolTableRecord
100
AcDbLayerTableRecord
  2
1
 70
     0
 62
     7
  6
Continuous
370
    -3
390
F
  0
ENDTAB
  0
TABLE
  2
STYLE
  5
3
330
0
100
AcDbSymbolTable
 70
     5
  0
STYLE
  5
11
330
3
100
AcDbSymbolTableRecord
100
AcDbTextStyleTableRecord
  2
Standard
 70
     0
 40
0.0
 41
1.0
 50
0.0
 71
     0
 42
0.2
  3
txt
  4

  0
STYLE
  5
13C
330
3
100
AcDbSymbolTableRecord
100
AcDbTextStyleTableRecord
  2
CONVERTER_11
 70
     0
 40
0.0
 41
0.9
 50
0.0
 71
     0
 42
0.2
  3
txt.shx
  4

  0
STYLE
  5
437
330
3
100
AcDbSymbolTableRecord
100
AcDbTextStyleTableRecord
  2
CONVERTER_12
 70
     0
 40
0.0
 41
0.81
 50
0.0
 71
     0
 42
0.2
  3
txt.shx
  4

  0
STYLE
  5
44D
330
3
100
AcDbSymbolTableRecord
100
AcDbTextStyleTableRecord
  2
CONVERTER_13
 70
     0
 40
0.0
 41
0.72
 50
0.0
 71
     0
 42
0.2
  3
txt.shx
  4

  0
STYLE
  5
450
330
3
100
AcDbSymbolTableRecord
100
AcDbTextStyleTableRecord
  2
CONVERTER_14
 70
     0
 40
0.0
 41
0.855
 50
0.0
 71
     0
 42
0.2
  3
txt.shx
  4

  0
ENDTAB
  0
TABLE
  2
VIEW
  5
6
330
0
100
AcDbSymbolTable
 70
     0
  0
ENDTAB
  0
TABLE
  2
UCS
  5
7
330
0
100
AcDbSymbolTable
 70
     0
  0
ENDTAB
  0
TABLE
  2
APPID
  5
9
330
0
100
AcDbSymbolTable
 70
     1
  0
APPID
  5
12
330
9
100
AcDbSymbolTableRecord
100
AcDbRegAppTableRecord
  2
ACAD
 70
     0
  0
ENDTAB
  0
TABLE
  2
DIMSTYLE
  5
A
330
0
100
AcDbSymbolTable
 70
     5
100
AcDbDimStyleTable
  0
DIMSTYLE
105
27
330
A
100
AcDbSymbolTableRecord
100
AcDbDimStyleTableRecord
  2
Standard
 70
     0
178
     0
340
11
  0
DIMSTYLE
105
183
102
{ACAD_REACTORS
330
184
102
}
330
A
100
AcDbSymbolTableRecord
100
AcDbDimStyleTableRecord
  2
ME10_DIM_10
 70
     0
 41
3.5
 42
0.0
 44
1.5
 73
     0
 74
     0
 77
     1
 78
     8
140
3.5
147
1.5
172
     1
173
     1
174
     1
175
     1
176
     2
177
     2
271
     2
178
     3
271
     2
340
13C
  0
DIMSTYLE
105
323
102
{ACAD_REACTORS
330
324
102
}
330
A
100
AcDbSymbolTableRecord
100
AcDbDimStyleTableRecord
  2
ME10_DIM_11
 70
     0
 41
3.5
 42
0.0
 44
1.5
 73
     0
 74
     0
 77
     1
 78
     8
140
3.5
147
1.5
172
     1
173
     1
174
     1
175
     1
176
     2
177
     2
271
     2
178
     3
271
     2
340
13C
  0
DIMSTYLE
105
32E
102
{ACAD_REACTORS
330
32F
102
}
330
A
100
AcDbSymbolTableRecord
100
AcDbDimStyleTableRecord
  2
ME10_DIM_12
 70
     0
 41
3.5
 42
0.0
 44
1.5
 73
     0
 74
     0
 77
     1
 78
     8
140
3.5
147
1.5
172
     1
173
     1
174
     1
175
     1
176
     2
177
     2
271
     2
178
     3
271
     2
340
13C
  0
DIMSTYLE
105
339
102
{ACAD_REACTORS
330
33A
102
}
330
A
100
AcDbSymbolTableRecord
100
AcDbDimStyleTableRecord
  2
ME10_DIM_13
 70
     0
 41
3.5
 42
0.0
 44
1.5
 73
     0
 74
     0
 77
     1
 78
     8
140
3.5
147
1.5
172
     1
173
     1
174
     1
175
     1
176
     2
177
     2
178
     3
340
13C
  0
ENDTAB
  0
TABLE
  2
BLOCK_RECORD
  5
1
330
0
100
AcDbSymbolTable
 70
    21
  0
BLOCK_RECORD
  5
1F
330
1
100
AcDbSymbolTableRecord
100
AcDbBlockTableRecord
  2
*Model_Space
340
22
  0
BLOCK_RECORD
  5
1B
330
1
100
AcDbSymbolTableRecord
100
AcDbBlockTableRecord
  2
*Paper_Space
340
1E
  0
BLOCK_RECORD
  5
23
330
1
100
AcDbSymbolTableRecord
100
AcDbBlockTableRecord
  2
*Paper_Space0
340
26
  0
BLOCK_RECORD
  5
47
330
1
100
AcDbSymbolTableRecord
100
AcDbBlockTableRecord
  2
PT_IQ_1X2_24DC_P-select__1
340
0
102
{BLKREFS
331
4B
102
}
  0
BLOCK_RECORD
  5
4A
330
1
100
AcDbSymbolTableRecord
100
AcDbBlockTableRecord
  2
Allg1
340
0
102
{BLKREFS
331
7D
102
}
  0
BLOCK_RECORD
  5
4E
330
1
100
AcDbSymbolTableRecord
100
AcDbBlockTableRecord
  2
PT_IQ_1X2_24DC_P-select__2
340
0
102
{BLKREFS
331
52
102
}
  0
BLOCK_RECORD
  5
51
330
1
100
AcDbSymbolTableRecord
100
AcDbBlockTableRecord
  2
Drfsicht2
340
0
102
{BLKREFS
331
7E
102
}
  0
BLOCK_RECORD
  5
55
330
1
100
AcDbSymbolTableRecord
100
AcDbBlockTableRecord
  2
PT_IQ_1X2_24DC_P-select__3
340
0
102
{BLKREFS
331
59
102
}
  0
BLOCK_RECORD
  5
58
330
1
100
AcDbSymbolTableRecord
100
AcDbBlockTableRecord
  2
Rckans2
340
0
102
{BLKREFS
331
7F
102
}
  0
BLOCK_RECORD
  5
5C
330
1
100
AcDbSymbolTableRecord
100
AcDbBlockTableRecord
  2
PT_IQ_1X2_24DC_P-select__4
340
0
102
{BLKREFS
331
60
102
}
  0
BLOCK_RECORD
  5
5F
330
1
100
AcDbSymbolTableRecord
100
AcDbBlockTableRecord
  2
SA_Links2
340
0
102
{BLKREFS
331
80
102
}
  0
BLOCK_RECORD
  5
63
330
1
100
AcDbSymbolTableRecord
100
AcDbBlockTableRecord
  2
PT_IQ_1X2_24DC_P-select__5
340
0
102
{BLKREFS
331
67
102
}
  0
BLOCK_RECORD
  5
66
330
1
100
AcDbSymbolTableRecord
100
AcDbBlockTableRecord
  2
SA_Rechts2
340
0
102
{BLKREFS
331
81
102
}
  0
BLOCK_RECORD
  5
6A
330
1
100
AcDbSymbolTableRecord
100
AcDbBlockTableRecord
  2
PT_IQ_1X2_24DC_P-select__6
340
0
102
{BLKREFS
331
6E
102
}
  0
BLOCK_RECORD
  5
6D
330
1
100
AcDbSymbolTableRecord
100
AcDbBlockTableRecord
  2
Vordans2
340
0
102
{BLKREFS
331
82
102
}
  0
BLOCK_RECORD
  5
71
330
1
100
AcDbSymbolTableRecord
100
AcDbBlockTableRecord
  2
_rahmen
340
0
102
{BLKREFS
331
78
102
}
  0
BLOCK_RECORD
  5
74
330
1
100
AcDbSymbolTableRecord
100
AcDbBlockTableRecord
  2
_punkt
340
0
102
{BLKREFS
331
79
102
}
  0
BLOCK_RECORD
  5
77
330
1
100
AcDbSymbolTableRecord
100
AcDbBlockTableRecord
  2
A4I_CS
340
0
102
{BLKREFS
331
83
102
}
  0
BLOCK_RECORD
  5
7C
330
1
100
AcDbSymbolTableRecord
100
AcDbBlockTableRecord
  2
1
340
0
102
{BLKREFS
331
86
102
}
  0
BLOCK_RECORD
  5
17A
330
1
100
AcDbSymbolTableRecord
100
AcDbBlockTableRecord
  2
*D17
340
0
  0
BLOCK_RECORD
  5
31A
330
1
100
AcDbSymbolTableRecord
100
AcDbBlockTableRecord
  2
*D18
340
0
  0
BLOCK_RECORD
  5
325
330
1
100
AcDbSymbolTableRecord
100
AcDbBlockTableRecord
  2
*D19
340
0
  0
BLOCK_RECORD
  5
330
330
1
100
AcDbSymbolTableRecord
100
AcDbBlockTableRecord
  2
*D20
340
0
  0
ENDTAB
  0
ENDSEC
  0
SECTION
  2
BLOCKS
  0
BLOCK
  5
20
330
1F
100
AcDbEntity
  8
0
100
AcDbBlockBegin
  2
*Model_Space
 70
     0
 10
0.0
 20
0.0
 30
0.0
  3
*Model_Space
  1

  0
ENDBLK
  5
21
330
1F
100
AcDbEntity
  8
0
100
AcDbBlockEnd
  0
BLOCK
  5
1C
330
1B
100
AcDbEntity
 67
     1
  8
0
100
AcDbBlockBegin
  2
*Paper_Space
 70
     0
 10
0.0
 20
0.0
 30
0.0
  3
*Paper_Space
  1

  0
ENDBLK
  5
1D
330
1B
100
AcDbEntity
 67
     1
  8
0
100
AcDbBlockEnd
  0
BLOCK
  5
24
330
23
100
AcDbEntity
  8
0
100
AcDbBlockBegin
  2
*Paper_Space0
 70
     0
 10
0.0
 20
0.0
 30
0.0
  3
*Paper_Space0
  1

  0
ENDBLK
  5
25
330
23
100
AcDbEntity
  8
0
100
AcDbBlockEnd
  0
BLOCK
  5
48
330
47
100
AcDbEntity
  8
0
100
AcDbBlockBegin
  2
PT_IQ_1X2_24DC_P-select__1
 70
     0
 10
192.5245347355706
 20
822.2276095278391
 30
0.0
  3
PT_IQ_1X2_24DC_P-select__1
  1

  0
LINE
  5
87
330
47
100
AcDbEntity
  8
0
  6
Continuous
 62
     7
100
AcDbLine
 10
193.3039576234239
 20
862.4323830994381
 30
0.0
 11
193.3039576234238
 21
860.88366712586
 31
0.0
  0
LINE
  5
88
330
47
100
AcDbEntity
  8
0
  6
Continuous
 62
     7
100
AcDbLine
 10
193.303957623424
 20
871.0926371372811
 30
0.0
 11
193.303957623424
 21
869.6105881118492
 31
0.0
  0
LINE
  5
89
330
47
100
AcDbEntity
  8
0
  6
Continuous
 62
     7
100
AcDbLine
 10
192.8709449215326
 20
871.2176371372809
 30
0.0
 11
193.303957623424
 21
871.0926371372811
 31
0.0
  0
LINE
  5
8A
330
47
100
AcDbEntity
  8
0
  6
Continuous
 62
     7
100
AcDbLine
 10
192.8709449215326
 20
871.6506488064931
 30
0.0
 11
192.8709449215326
 21
871.2176371372809
 31
0.0
  0
LINE
  5
8B
330
47
100
AcDbEntity
  8
0
  6
Continuous
 62
     7
100
AcDbLine
 10
193.303957623424
 20
871.7756516213103
 30
0.0
 11
192.8709449215326
 21
871.6506488064931
 31
0.0
  0
LINE
  5
8C
330
47
100
AcDbEntity
  8
0
  6
Continuous
 62
     7
100
AcDbLine
 10
192.5245350452894
 20
860.9586645650757
 30
0.0
 11
193.3039576234238
 21
860.88366712586
 31
0.0
  0
LINE
  5
8D
330
47
100
AcDbEntity
  8
0
  6
Continuous
 62
     7
100
AcDbLine
 10
212.0101063218825
 20
872.1878388926424
 30
0.0
 11
217.8360613019898
 21
870.4080214297057
 31
0.0
  0
LINE
  5
8E
330
47
100
AcDbEntity
  8
0
  6
Continuous
 62
     7
100
AcDbLine
 10
232.7175173801622
 20
874.6158203185057
 30
0.0
 11
236.4472585851439
 21
873.2147821185691
 31
0.0
  0
LINE
  5
8F
330
47
100
AcDbEntity
  8
0
  6
Continuous
 62
     7
100
AcDbLine
 10
236.7171137923647
 20
873.4484835833391
 30
0.0
 11
232.7472190013795
 21
874.9261002143955
 31
0.0
  0
LINE
  5
90
330
47
100
AcDbEntity
  8
0
  6
Continuous
 62
     7
100
AcDbLine
 10
232.8941981456603
 20
845.2533812319025
 30
0.0
 11
232.4635575326646
 21
845.4229586211243
 31
0.0
  0
LINE
  5
91
330
47
100
AcDbEntity
  8
0
  6
Continuous
 62
     7
100
AcDbLine
 10
232.9161790556901
 20
849.5987041720892
 30
0.0
 11
232.7612627485748
 21
848.169494452099
 31
0.0
  0
LINE
  5
92
330
47
100
AcDbEntity
  8
0
  6
Continuous
 62
     7
100
AcDbLine
 10
233.1424898183048
 20
851.6865769471376
 30
0.0
 11
232.9875735111895
 21
850.2573672271473
 31
0.0
  0
LINE
  5
93
330
47
100
AcDbEntity
  8
0
  6
Continuous
 62
     7
100
AcDbLine
 10
233.3688005787316
 20
853.7744497230481
 30
0.0
 11
233.2138842716159
 21
852.3452400030543
 31
0.0
  0
LINE
  5
94
330
47
100
AcDbEntity
  8
0
  6
Continuous
 62
     7
100
AcDbLine
 10
233.625828158227
 20
856.1457063180487
 30
0.0
 11
233.4401950331367
 21
854.433112778534
 31
0.0
  0
LINE
  5
95
330
47
100
AcDbEntity
  8
0
  6
Continuous
 62
     7
100
AcDbLine
 10
233.625828158227
 20
856.1457063180487
 30
0.0
 11
233.6991023034344
 21
856.7213239171014
 31
0.0
  0
LINE
  5
96
330
47
100
AcDbEntity
  8
0
  6
Continuous
 62
     7
100
AcDbLine
 10
232.323790012646
 20
857.2872094934835
 30
0.0
 11
233.6991023034344
 21
856.7213239171014
 31
0.0
  0
LINE
  5
97
330
47
100
AcDbEntity
  8
0
  6
Continuous
 62
     7
100
AcDbLine
 10
231.4956779573813
 20
865.463285336462
 30
0.0
 11
231.4956779572671
 21
858.2922850517316
 31
0.0
  0
LINE
  5
98
330
47
100
AcDbEntity
  8
0
  6
Continuous
 62
     7
100
AcDbLine
 10
223.6864694837848
 20
868.4236695488709
 30
0.0
 11
229.0072860155778
 21
866.44323243115
 31
0.0
  0
LINE
  5
99
330
47
100
AcDbEntity
  8
0
  6
Continuous
 62
     7
100
AcDbLine
 10
237.8572860160051
 20
874.1075572557904
 30
0.0
 11
229.0072860155778
 21
866.44323243115
 31
0.0
  0
LINE
  5
9A
330
47
100
AcDbEntity
  8
0
  6
Continuous
 62
     7
100
AcDbLine
 10
225.6472190011866
 20
868.7773198480631
 30
0.0
 11
229.6171137921718
 21
867.2997032170067
 31
0.0
  0
LINE
  5
9B
330
47
100
AcDbEntity
  8
0
  6
Continuous
 62
     7
100
AcDbLine
 10
232.536469484077
 20
876.0879943733943
 30
0.0
 11
223.6864694837848
 21
868.4236695488709
 31
0.0
  0
LINE
  5
9C
330
47
100
AcDbEntity
  8
0
  6
Continuous
 62
     7
100
AcDbLine
 10
232.536469484077
 20
876.0879943733943
 30
0.0
 11
237.8572860160051
 21
874.1075572557904
 31
0.0
  0
LINE
  5
9D
330
47
100
AcDbEntity
  8
0
  6
Continuous
 62
     7
100
AcDbLine
 10
236.9019945788626
 20
830.9095911229285
 30
0.0
 11
236.9019945788626
 21
827.077351787946
 31
0.0
  0
LINE
  5
9E
330
47
100
AcDbEntity
  8
0
  6
Continuous
 62
     7
100
AcDbLine
 10
236.5019945787796
 20
830.5631809613077
 30
0.0
 11
236.5019945787796
 21
826.7309416263603
 31
0.0
  0
LINE
  5
9F
330
47
100
AcDbEntity
  8
0
  6
Continuous
 62
     7
100
AcDbLine
 10
236.5019945787796
 20
826.7309416263603
 30
0.0
 11
236.9019945788626
 21
827.077351787946
 31
0.0
  0
LINE
  5
A0
330
47
100
AcDbEntity
  8
0
  6
Continuous
 62
     7
100
AcDbLine
 10
236.5019945787796
 20
826.7309416263603
 30
0.0
 11
233.9039183674922
 21
827.4809416264175
 31
0.0
  0
LINE
  5
A1
330
47
100
AcDbEntity
  8
0
  6
Continuous
 62
     7
100
AcDbLine
 10
233.9039183674922
 20
827.4809416264175
 30
0.0
 11
233.9039183673185
 21
828.3131809609861
 31
0.0
  0
LINE
  5
A2
330
47
100
AcDbEntity
  8
0
  6
Continuous
 62
     7
100
AcDbLine
 10
240.3456781718663
 20
833.8919083501366
 30
0.0
 11
240.3456781718663
 21
843.8657046763861
 31
0.0
  0
LINE
  5
A3
330
47
100
AcDbEntity
  8
0
  6
Continuous
 62
     7
100
AcDbLine
 10
232.1363633207288
 20
842.4043664746274
 30
0.0
 11
233.1738007217265
 21
841.9775027975151
 31
0.0
  0
LINE
  5
A4
330
47
100
AcDbEntity
  8
0
  6
Continuous
 62
     7
100
AcDbLine
 10
233.1738007217265
 20
841.9775027975151
 30
0.0
 11
233.075487936691
 21
841.3851607585378
 31
0.0
  0
LINE
  5
A5
330
47
100
AcDbEntity
  8
0
  6
Continuous
 62
     7
100
AcDbLine
 10
232.0586506751528
 20
840.8444532058411
 30
0.0
 11
233.075487936691
 21
841.3851607585378
 31
0.0
  0
LINE
  5
A6
330
47
100
AcDbEntity
  8
0
  6
Continuous
 62
     7
100
AcDbLine
 10
232.0586506751528
 20
840.8444532058411
 30
0.0
 11
231.4956778779792
 21
836.2013799024814
 31
0.0
  0
LINE
  5
A7
330
47
100
AcDbEntity
  8
0
  6
Continuous
 62
     7
100
AcDbLine
 10
231.4956778779792
 20
836.2013799024814
 30
0.0
 11
240.3456781718663
 21
843.8657046763861
 31
0.0
  0
LINE
  5
A8
330
47
100
AcDbEntity
  8
0
  6
Continuous
 62
     7
100
AcDbLine
 10
231.4956781713759
 20
826.2275835254416
 30
0.0
 11
240.3456781718663
 21
833.8919083501366
 31
0.0
  0
LINE
  5
A9
330
47
100
AcDbEntity
  8
0
  6
Continuous
 62
     7
100
AcDbLine
 10
207.4016474425641
 20
832.9239808810195
 30
0.0
 11
204.2839559889152
 21
833.823980881118
 31
0.0
  0
LINE
  5
AA
330
47
100
AcDbEntity
  8
0
  6
Continuous
 62
     7
100
AcDbLine
 10
207.4016474425641
 20
833.1829310890129
 30
0.0
 11
207.4016474425641
 21
832.9239808810195
 31
0.0
  0
LINE
  5
AB
330
47
100
AcDbEntity
  8
0
  6
Continuous
 62
     7
100
AcDbLine
 10
207.4016474425641
 20
832.9239808810195
 30
0.0
 11
207.6259049010016
 21
833.1181935370146
 31
0.0
  0
LINE
  5
AC
330
47
100
AcDbEntity
  8
0
  6
Continuous
 62
     7
100
AcDbLine
 10
240.8626025573686
 20
848.1289998427471
 30
0.0
 11
240.3456781718663
 21
843.8657046763861
 31
0.0
  0
LINE
  5
AD
330
47
100
AcDbEntity
  8
0
  6
Continuous
 62
     7
100
AcDbLine
 10
232.9394601900204
 20
845.6709547911398
 30
0.0
 11
232.8941981456603
 21
845.2533812319025
 31
0.0
  0
LINE
  5
AE
330
47
100
AcDbEntity
  8
0
  6
Continuous
 62
     7
100
AcDbLine
 10
232.5349519870545
 20
846.0816216766245
 30
0.0
 11
232.9394601900204
 21
845.6709547911398
 31
0.0
  0
LINE
  5
AF
330
47
100
AcDbEntity
  8
0
  6
Continuous
 62
     7
100
AcDbLine
 10
232.5349519870545
 20
846.0816216766245
 30
0.0
 11
232.6898682941693
 21
847.5108313966097
 31
0.0
  0
LINE
  5
B0
330
47
100
AcDbEntity
  8
0
  6
Continuous
 62
     7
100
AcDbLine
 10
233.1205089071729
 20
847.3412540073848
 30
0.0
 11
232.6898682941693
 21
847.5108313966097
 31
0.0
  0
LINE
  5
B1
330
47
100
AcDbEntity
  8
0
  6
Continuous
 62
     7
100
AcDbLine
 10
233.165770951533
 20
847.758827566622
 30
0.0
 11
233.1205089071729
 21
847.3412540073848
 31
0.0
  0
LINE
  5
B2
330
47
100
AcDbEntity
  8
0
  6
Continuous
 62
     7
100
AcDbLine
 10
232.7612627485748
 20
848.169494452099
 30
0.0
 11
233.165770951533
 21
847.758827566622
 31
0.0
  0
LINE
  5
B3
330
47
100
AcDbEntity
  8
0
  6
Continuous
 62
     7
100
AcDbLine
 10
233.3468196697877
 20
849.4291267824336
 30
0.0
 11
232.9161790556901
 21
849.5987041720892
 31
0.0
  0
LINE
  5
B4
330
47
100
AcDbEntity
  8
0
  6
Continuous
 62
     7
100
AcDbLine
 10
233.3920817141477
 20
849.8467003416703
 30
0.0
 11
233.3468196697877
 21
849.4291267824336
 31
0.0
  0
LINE
  5
B5
330
47
100
AcDbEntity
  8
0
  6
Continuous
 62
     7
100
AcDbLine
 10
232.9875735111895
 20
850.2573672271473
 30
0.0
 11
233.3920817141477
 21
849.8467003416703
 31
0.0
  0
LINE
  5
B6
330
47
100
AcDbEntity
  8
0
  6
Continuous
 62
     7
100
AcDbLine
 10
233.5731304302144
 20
851.5169995583434
 30
0.0
 11
233.1424898183048
 21
851.6865769471376
 31
0.0
  0
LINE
  5
B7
330
47
100
AcDbEntity
  8
0
  6
Continuous
 62
     7
100
AcDbLine
 10
233.6183924745741
 20
851.9345731175773
 30
0.0
 11
233.5731304302144
 21
851.5169995583434
 31
0.0
  0
LINE
  5
B8
330
47
100
AcDbEntity
  8
0
  6
Continuous
 62
     7
100
AcDbLine
 10
233.2138842716159
 20
852.3452400030543
 30
0.0
 11
233.6183924745741
 21
851.9345731175773
 31
0.0
  0
LINE
  5
B9
330
47
100
AcDbEntity
  8
0
  6
Continuous
 62
     7
100
AcDbLine
 10
233.7994411917352
 20
853.6048723338231
 30
0.0
 11
233.3688005787316
 21
853.7744497230481
 31
0.0
  0
LINE
  5
BA
330
47
100
AcDbEntity
  8
0
  6
Continuous
 62
     7
100
AcDbLine
 10
233.844703236095
 20
854.022445893057
 30
0.0
 11
233.7994411917352
 21
853.6048723338231
 31
0.0
  0
LINE
  5
BB
330
47
100
AcDbEntity
  8
0
  6
Continuous
 62
     7
100
AcDbLine
 10
233.4401950331367
 20
854.433112778534
 30
0.0
 11
233.844703236095
 21
854.022445893057
 31
0.0
  0
LINE
  5
BC
330
47
100
AcDbEntity
  8
0
  6
Continuous
 62
     7
100
AcDbLine
 10
236.7171137923647
 20
873.4484835833391
 30
0.0
 11
229.6171137921718
 21
867.2997032170067
 31
0.0
  0
LINE
  5
BD
330
47
100
AcDbEntity
  8
0
  6
Continuous
 62
     7
100
AcDbLine
 10
237.8572860160051
 20
874.1075572557904
 30
0.0
 11
240.3456779577575
 21
873.1276101610672
 31
0.0
  0
LINE
  5
BE
330
47
100
AcDbEntity
  8
0
  6
Continuous
 62
     7
100
AcDbLine
 10
240.3456779577575
 20
865.9566098764267
 30
0.0
 11
240.3456779577575
 21
873.1276101610672
 31
0.0
  0
LINE
  5
BF
330
47
100
AcDbEntity
  8
0
  6
Continuous
 62
     7
100
AcDbLine
 10
240.3456779577575
 20
873.1276101610672
 30
0.0
 11
231.4956779573813
 21
865.463285336462
 31
0.0
  0
LINE
  5
C0
330
47
100
AcDbEntity
  8
0
  6
Continuous
 62
     7
100
AcDbLine
 10
241.1737900131628
 20
864.9515343182773
 30
0.0
 11
242.5491023046546
 21
864.3856487416504
 31
0.0
  0
LINE
  5
C1
330
47
100
AcDbEntity
  8
0
  6
Continuous
 62
     7
100
AcDbLine
 10
242.2901950336774
 20
862.0974376033068
 30
0.0
 11
242.6947032366459
 21
861.6867707178387
 31
0.0
  0
LINE
  5
C2
330
47
100
AcDbEntity
  8
0
  6
Continuous
 62
     7
100
AcDbLine
 10
242.4758281547462
 20
863.8100311056817
 30
0.0
 11
242.2901950336774
 21
862.0974376033068
 31
0.0
  0
LINE
  5
C3
330
47
100
AcDbEntity
  8
0
  6
Continuous
 62
     7
100
AcDbLine
 10
242.4683924751193
 20
859.5988979423541
 30
0.0
 11
242.4231304307585
 21
859.1813243831192
 31
0.0
  0
LINE
  5
C4
330
47
100
AcDbEntity
  8
0
  6
Continuous
 62
     7
100
AcDbLine
 10
242.649441192285
 20
861.2691971586039
 30
0.0
 11
233.7994411917352
 21
853.6048723338231
 31
0.0
  0
LINE
  5
C5
330
47
100
AcDbEntity
  8
0
  6
Continuous
 62
     7
100
AcDbLine
 10
233.625828158227
 20
856.1457063180487
 30
0.0
 11
242.4758281547462
 21
863.8100311056817
 31
0.0
  0
LINE
  5
C6
330
47
100
AcDbEntity
  8
0
  6
Continuous
 62
     7
100
AcDbLine
 10
242.6947032366459
 20
861.6867707178387
 30
0.0
 11
242.649441192285
 21
861.2691971586039
 31
0.0
  0
LINE
  5
C7
330
47
100
AcDbEntity
  8
0
  6
Continuous
 62
     7
100
AcDbLine
 10
233.844703236095
 20
854.022445893057
 30
0.0
 11
242.6947032366459
 21
861.6867707178387
 31
0.0
  0
LINE
  5
C8
330
47
100
AcDbEntity
  8
0
  6
Continuous
 62
     7
100
AcDbLine
 10
242.4758281547462
 20
863.8100311056817
 30
0.0
 11
242.5491023046546
 21
864.3856487416504
 31
0.0
  0
LINE
  5
C9
330
47
100
AcDbEntity
  8
0
  6
Continuous
 62
     7
100
AcDbLine
 10
242.2901950336774
 20
862.0974376033068
 30
0.0
 11
233.4401950331367
 21
854.433112778534
 31
0.0
  0
LINE
  5
CA
330
47
100
AcDbEntity
  8
0
  6
Continuous
 62
     7
100
AcDbLine
 10
242.0638842721508
 20
860.0095648278221
 30
0.0
 11
242.4683924751193
 21
859.5988979423541
 31
0.0
  0
LINE
  5
CB
330
47
100
AcDbEntity
  8
0
  6
Continuous
 62
     7
100
AcDbLine
 10
242.0238007229333
 20
849.6418276220525
 30
0.0
 11
241.9254879380102
 21
849.049485583765
 31
0.0
  0
LINE
  5
CC
330
47
100
AcDbEntity
  8
0
  6
Continuous
 62
     7
100
AcDbLine
 10
241.8375735117186
 20
857.9216920519101
 30
0.0
 11
242.2420817146871
 21
857.5110251664421
 31
0.0
  0
LINE
  5
CD
330
47
100
AcDbEntity
  8
0
  6
Continuous
 62
     7
100
AcDbLine
 10
242.1539028626268
 20
860.8400483765255
 30
0.0
 11
242.0638842721508
 21
860.0095648278221
 31
0.0
  0
LINE
  5
CE
330
47
100
AcDbEntity
  8
0
  6
Continuous
 62
     7
100
AcDbLine
 10
242.196819670326
 20
857.0934516072044
 30
0.0
 11
233.3468196697877
 21
849.4291267824336
 31
0.0
  0
LINE
  5
CF
330
47
100
AcDbEntity
  8
0
  6
Continuous
 62
     7
100
AcDbLine
 10
242.0638842721508
 20
860.0095648278221
 30
0.0
 11
233.2138842716159
 21
852.3452400030543
 31
0.0
  0
LINE
  5
D0
330
47
100
AcDbEntity
  8
0
  6
Continuous
 62
     7
100
AcDbLine
 10
242.2420817146871
 20
857.5110251664421
 30
0.0
 11
242.196819670326
 21
857.0934516072044
 31
0.0
  0
LINE
  5
D1
330
47
100
AcDbEntity
  8
0
  6
Continuous
 62
     7
100
AcDbLine
 10
238.6258006811066
 20
864.4671524633042
 30
0.0
 11
238.6362476967713
 21
862.7539582088593
 31
0.0
  0
LINE
  5
D2
330
47
100
AcDbEntity
  8
0
  6
Continuous
 62
     7
100
AcDbLine
 10
231.4956779572671
 20
858.2922850517316
 30
0.0
 11
240.3456779577575
 21
865.9566098764267
 31
0.0
  0
LINE
  5
D3
330
47
100
AcDbEntity
  8
0
  6
Continuous
 62
     7
100
AcDbLine
 10
241.9275921023591
 20
858.752175602131
 30
0.0
 11
241.8375735117186
 21
857.9216920519101
 31
0.0
  0
LINE
  5
D4
330
47
100
AcDbEntity
  8
0
  6
Continuous
 62
     7
100
AcDbLine
 10
241.701281339409
 20
856.6643028240359
 30
0.0
 11
241.6112627490982
 21
855.833819276857
 31
0.0
  0
LINE
  5
D5
330
47
100
AcDbEntity
  8
0
  6
Continuous
 62
     7
100
AcDbLine
 10
241.6112627490982
 20
855.833819276857
 30
0.0
 11
242.0157709520667
 21
855.4231523913888
 31
0.0
  0
LINE
  5
D6
330
47
100
AcDbEntity
  8
0
  6
Continuous
 62
     7
100
AcDbLine
 10
241.8375735117186
 20
857.9216920519101
 30
0.0
 11
232.9875735111895
 21
850.2573672271473
 31
0.0
  0
LINE
  5
D7
330
47
100
AcDbEntity
  8
0
  6
Continuous
 62
     7
100
AcDbLine
 10
241.3849519875722
 20
853.7459465013774
 30
0.0
 11
241.7894601905484
 21
853.3352796159016
 31
0.0
  0
LINE
  5
D8
330
47
100
AcDbEntity
  8
0
  6
Continuous
 62
     7
100
AcDbLine
 10
241.2486598165379
 20
852.4885572745927
 30
0.0
 11
240.9863633212413
 21
850.068691299417
 31
0.0
  0
LINE
  5
D9
330
47
100
AcDbEntity
  8
0
  6
Continuous
 62
     7
100
AcDbLine
 10
240.9863633212413
 20
850.068691299417
 30
0.0
 11
242.0238007229333
 21
849.6418276220525
 31
0.0
  0
LINE
  5
DA
330
47
100
AcDbEntity
  8
0
  6
Continuous
 62
     7
100
AcDbLine
 10
232.9394601900204
 20
845.6709547911398
 30
0.0
 11
241.7894601905484
 21
853.3352796159016
 31
0.0
  0
LINE
  5
DB
330
47
100
AcDbEntity
  8
0
  6
Continuous
 62
     7
100
AcDbLine
 10
232.5349519870545
 20
846.0816216766245
 30
0.0
 11
241.3849519875722
 21
853.7459465013774
 31
0.0
  0
LINE
  5
DC
330
47
100
AcDbEntity
  8
0
  6
Continuous
 62
     7
100
AcDbLine
 10
241.9705089077055
 20
855.0055788321505
 30
0.0
 11
233.1205089071729
 21
847.3412540073848
 31
0.0
  0
LINE
  5
DD
330
47
100
AcDbEntity
  8
0
  6
Continuous
 62
     7
100
AcDbLine
 10
241.3849519875722
 20
853.7459465013774
 30
0.0
 11
241.4749705780473
 21
854.5764300500722
 31
0.0
  0
LINE
  5
DE
330
47
100
AcDbEntity
  8
0
  6
Continuous
 62
     7
100
AcDbLine
 10
241.7894601905484
 20
853.3352796159016
 30
0.0
 11
241.7441981461872
 21
852.9177060566633
 31
0.0
  0
LINE
  5
DF
330
47
100
AcDbEntity
  8
0
  6
Continuous
 62
     7
100
AcDbLine
 10
232.8941981456603
 20
845.2533812319025
 30
0.0
 11
241.7441981461872
 21
852.9177060566633
 31
0.0
  0
LINE
  5
E0
330
47
100
AcDbEntity
  8
0
  6
Continuous
 62
     7
100
AcDbLine
 10
241.6112627490982
 20
855.833819276857
 30
0.0
 11
232.7612627485748
 21
848.169494452099
 31
0.0
  0
LINE
  5
E1
330
47
100
AcDbEntity
  8
0
  6
Continuous
 62
     7
100
AcDbLine
 10
242.0157709520667
 20
855.4231523913888
 30
0.0
 11
241.9705089077055
 21
855.0055788321505
 31
0.0
  0
LINE
  5
E2
330
47
100
AcDbEntity
  8
0
  6
Continuous
 62
     7
100
AcDbLine
 10
233.165770951533
 20
847.758827566622
 30
0.0
 11
242.0157709520667
 21
855.4231523913888
 31
0.0
  0
LINE
  5
E3
330
47
100
AcDbEntity
  8
0
  6
Continuous
 62
     7
100
AcDbLine
 10
232.4635575326646
 20
845.4229586211243
 30
0.0
 11
232.1363633207288
 21
842.4043664746274
 31
0.0
  0
LINE
  5
E4
330
47
100
AcDbEntity
  8
0
  6
Continuous
 62
     7
100
AcDbLine
 10
232.1510850079219
 20
855.9304957456503
 30
0.0
 11
232.323790012646
 21
857.2872094934835
 31
0.0
  0
LINE
  5
E5
330
47
100
AcDbEntity
  8
0
  6
Continuous
 62
     7
100
AcDbLine
 10
232.8368383569535
 20
855.6483358814712
 30
0.0
 11
232.1510850079219
 21
855.9304957456503
 31
0.0
  0
LINE
  5
E6
330
47
100
AcDbEntity
  8
0
  6
Continuous
 62
     7
100
AcDbLine
 10
231.3789347129408
 20
843.0014033659266
 30
0.0
 11
232.8368383569535
 21
855.6483358814712
 31
0.0
  0
LINE
  5
E7
330
47
100
AcDbEntity
  8
0
  6
Continuous
 62
     7
100
AcDbLine
 10
231.4956779572671
 20
858.2922850517316
 30
0.0
 11
229.7636690923322
 21
858.792272943936
 31
0.0
  0
LINE
  5
E8
330
47
100
AcDbEntity
  8
0
  6
Continuous
 62
     7
100
AcDbLine
 10
229.0072860155778
 20
866.44323243115
 30
0.0
 11
231.4956779573813
 21
865.463285336462
 31
0.0
  0
LINE
  5
E9
330
47
100
AcDbEntity
  8
0
  6
Continuous
 62
     7
100
AcDbLine
 10
240.9863633212413
 20
850.068691299417
 30
0.0
 11
232.1363633207288
 21
842.4043664746274
 31
0.0
  0
LINE
  5
EA
330
47
100
AcDbEntity
  8
0
  6
Continuous
 62
     7
100
AcDbLine
 10
242.0238007229333
 20
849.6418276220525
 30
0.0
 11
233.1738007217265
 21
841.9775027975151
 31
0.0
  0
LINE
  5
EB
330
47
100
AcDbEntity
  8
0
  6
Continuous
 62
     7
100
AcDbLine
 10
233.3920817141477
 20
849.8467003416703
 30
0.0
 11
242.2420817146871
 21
857.5110251664421
 31
0.0
  0
LINE
  5
EC
330
47
100
AcDbEntity
  8
0
  6
Continuous
 62
     7
100
AcDbLine
 10
233.6183924745741
 20
851.9345731175773
 30
0.0
 11
242.4683924751193
 21
859.5988979423541
 31
0.0
  0
LINE
  5
ED
330
47
100
AcDbEntity
  8
0
  6
Continuous
 62
     7
100
AcDbLine
 10
233.6991023034344
 20
856.7213239171014
 30
0.0
 11
242.5491023046546
 21
864.3856487416504
 31
0.0
  0
LINE
  5
EE
330
47
100
AcDbEntity
  8
0
  6
Continuous
 62
     7
100
AcDbLine
 10
232.323790012646
 20
857.2872094934835
 30
0.0
 11
241.1737900131628
 21
864.9515343182773
 31
0.0
  0
LINE
  5
EF
330
47
100
AcDbEntity
  8
0
  6
Continuous
 62
     7
100
AcDbLine
 10
242.4231304307585
 20
859.1813243831192
 30
0.0
 11
233.5731304302144
 21
851.5169995583434
 31
0.0
  0
LINE
  5
F0
330
47
100
AcDbEntity
  8
0
  6
Continuous
 62
     7
100
AcDbLine
 10
233.075487936691
 20
841.3851607585378
 30
0.0
 11
241.9254879380102
 21
849.049485583765
 31
0.0
  0
LINE
  5
F1
330
47
100
AcDbEntity
  8
0
  6
Continuous
 62
     7
100
AcDbLine
 10
217.8360613019898
 20
870.4080214297057
 30
0.0
 11
223.6864694837848
 21
868.4236695488709
 31
0.0
  0
LINE
  5
F2
330
47
100
AcDbEntity
  8
0
  6
Continuous
 62
     7
100
AcDbLine
 10
193.303957622324
 20
868.9275736281376
 30
0.0
 11
193.3039576223239
 21
867.4455246027069
 31
0.0
  0
LINE
  5
F3
330
47
100
AcDbEntity
  8
0
  6
Continuous
 62
     7
100
AcDbLine
 10
192.8709449215325
 20
869.0525736278198
 30
0.0
 11
193.303957622324
 21
868.9275736281376
 31
0.0
  0
LINE
  5
F4
330
47
100
AcDbEntity
  8
0
  6
Continuous
 62
     7
100
AcDbLine
 10
192.8709449215325
 20
869.485585297032
 30
0.0
 11
192.8709449215325
 21
869.0525736278198
 31
0.0
  0
LINE
  5
F5
330
47
100
AcDbEntity
  8
0
  6
Continuous
 62
     7
100
AcDbLine
 10
193.303957623424
 20
869.6105881118492
 30
0.0
 11
192.8709449215325
 21
869.485585297032
 31
0.0
  0
LINE
  5
F6
330
47
100
AcDbEntity
  8
0
  6
Continuous
 62
     7
100
AcDbLine
 10
193.3039576234238
 20
863.1153975834678
 30
0.0
 11
192.8709449752716
 21
862.9903947841641
 31
0.0
  0
LINE
  5
F7
330
47
100
AcDbEntity
  8
0
  6
Continuous
 62
     7
100
AcDbLine
 10
192.8709449752716
 20
862.5573830839247
 30
0.0
 11
193.3039576234239
 21
862.4323830994381
 31
0.0
  0
LINE
  5
F8
330
47
100
AcDbEntity
  8
0
  6
Continuous
 62
     7
100
AcDbLine
 10
193.3039576234239
 20
864.5974466088985
 30
0.0
 11
193.3039576234238
 21
863.1153975834678
 31
0.0
  0
LINE
  5
F9
330
47
100
AcDbEntity
  8
0
  6
Continuous
 62
     7
100
AcDbLine
 10
192.8709449215324
 20
864.7224466088983
 30
0.0
 11
193.3039576234239
 21
864.5974466088985
 31
0.0
  0
LINE
  5
FA
330
47
100
AcDbEntity
  8
0
  6
Continuous
 62
     7
100
AcDbLine
 10
192.8709449215324
 20
865.1554582781117
 30
0.0
 11
192.8709449215324
 21
864.7224466088983
 31
0.0
  0
LINE
  5
FB
330
47
100
AcDbEntity
  8
0
  6
Continuous
 62
     7
100
AcDbLine
 10
192.8709449752716
 20
862.9903947841641
 30
0.0
 11
192.8709449752716
 21
862.5573830839247
 31
0.0
  0
LINE
  5
FC
330
47
100
AcDbEntity
  8
0
  6
Continuous
 62
     7
100
AcDbLine
 10
193.3039576234239
 20
865.2804610929289
 30
0.0
 11
192.8709449215324
 21
865.1554582781117
 31
0.0
  0
LINE
  5
FD
330
47
100
AcDbEntity
  8
0
  6
Continuous
 62
     7
100
AcDbLine
 10
193.3039576234239
 20
866.7625101183596
 30
0.0
 11
193.3039576234239
 21
865.2804610929289
 31
0.0
  0
LINE
  5
FE
330
47
100
AcDbEntity
  8
0
  6
Continuous
 62
     7
100
AcDbLine
 10
192.8709449204325
 20
866.8875101186769
 30
0.0
 11
193.3039576234239
 21
866.7625101183596
 31
0.0
  0
LINE
  5
FF
330
47
100
AcDbEntity
  8
0
  6
Continuous
 62
     7
100
AcDbLine
 10
192.8709449204325
 20
867.3205217878897
 30
0.0
 11
192.8709449204325
 21
866.8875101186769
 31
0.0
  0
LINE
  5
100
330
47
100
AcDbEntity
  8
0
  6
Continuous
 62
     7
100
AcDbLine
 10
193.3039576223239
 20
867.4455246027069
 30
0.0
 11
192.8709449204325
 21
867.3205217878897
 31
0.0
  0
LINE
  5
101
330
47
100
AcDbEntity
  8
0
  6
Continuous
 62
     7
100
AcDbLine
 10
193.3039576237835
 20
861.633664540534
 30
0.0
 11
192.5245350452894
 21
860.9586645650757
 31
0.0
  0
LINE
  5
102
330
47
100
AcDbEntity
  8
0
  6
Continuous
 62
     7
100
AcDbLine
 10
220.8601063218473
 20
879.8521637169176
 30
0.0
 11
226.6860613021329
 21
878.0723462541007
 31
0.0
  0
LINE
  5
103
330
47
100
AcDbEntity
  8
0
  6
Continuous
 62
     7
100
AcDbLine
 10
226.6860613021329
 20
878.0723462541007
 30
0.0
 11
217.8360613019898
 21
870.4080214297057
 31
0.0
  0
LINE
  5
104
330
47
100
AcDbEntity
  8
0
  6
Continuous
 62
     7
100
AcDbLine
 10
206.1841514147159
 20
873.7716380859292
 30
0.0
 11
215.034151414565
 21
881.4359629100451
 31
0.0
  0
LINE
  5
105
330
47
100
AcDbEntity
  8
0
  6
Continuous
 62
     7
100
AcDbLine
 10
215.034151414565
 20
881.4359629100451
 30
0.0
 11
220.8601063218473
 21
879.8521637169176
 31
0.0
  0
LINE
  5
106
330
47
100
AcDbEntity
  8
0
  6
Continuous
 62
     7
100
AcDbLine
 10
212.0101063218825
 20
872.1878388926424
 30
0.0
 11
220.8601063218473
 21
879.8521637169176
 31
0.0
  0
LINE
  5
107
330
47
100
AcDbEntity
  8
0
  6
Continuous
 62
     7
100
AcDbLine
 10
209.1837432087528
 20
882.829345773395
 30
0.0
 11
215.034151414565
 21
881.4359629100451
 31
0.0
  0
LINE
  5
108
330
47
100
AcDbEntity
  8
0
  6
Continuous
 62
     7
100
AcDbLine
 10
196.3688821168214
 20
874.5838522459758
 30
0.0
 11
196.3714828581111
 21
875.2350963804909
 31
0.0
  0
LINE
  5
109
330
47
100
AcDbEntity
  8
0
  6
Continuous
 62
     7
100
AcDbLine
 10
198.9605552426001
 20
874.7038070786477
 30
0.0
 11
196.3714828581111
 21
875.2350963804909
 31
0.0
  0
LINE
  5
10A
330
47
100
AcDbEntity
  8
0
  6
Continuous
 62
     7
100
AcDbLine
 10
194.875142619944
 20
876.2848243687906
 30
0.0
 11
194.9907328934889
 21
874.8666546671188
 31
0.0
  0
LINE
  5
10B
330
47
100
AcDbEntity
  8
0
  6
Continuous
 62
     7
100
AcDbLine
 10
196.3688821168214
 20
874.5838522459758
 30
0.0
 11
194.9907328934889
 21
874.8666546671188
 31
0.0
  0
LINE
  5
10C
330
47
100
AcDbEntity
  8
0
  6
Continuous
 62
     7
100
AcDbLine
 10
201.374534735072
 20
884.3775989621105
 30
0.0
 11
203.7251426195045
 21
883.9491491926809
 31
0.0
  0
LINE
  5
10D
330
47
100
AcDbEntity
  8
0
  6
Continuous
 62
     7
100
AcDbLine
 10
192.5245347355707
 20
876.713274138272
 30
0.0
 11
194.875142619944
 21
876.2848243687906
 31
0.0
  0
LINE
  5
10E
330
47
100
AcDbEntity
  8
0
  6
Continuous
 62
     7
100
AcDbLine
 10
194.875142619944
 20
876.2848243687906
 30
0.0
 11
203.7251426195045
 21
883.9491491926809
 31
0.0
  0
LINE
  5
10F
330
47
100
AcDbEntity
  8
0
  6
Continuous
 62
     7
100
AcDbLine
 10
201.374534735072
 20
884.3775989621105
 30
0.0
 11
192.5245347355707
 21
876.713274138272
 31
0.0
  0
LINE
  5
110
330
47
100
AcDbEntity
  8
0
  6
Continuous
 62
     7
100
AcDbLine
 10
194.9907328934889
 20
874.8666546671188
 30
0.0
 11
203.8407328944052
 21
882.5309794905637
 31
0.0
  0
LINE
  5
111
330
47
100
AcDbEntity
  8
0
  6
Continuous
 62
     7
100
AcDbLine
 10
200.3337432077113
 20
875.1650209497044
 30
0.0
 11
200.4493605041194
 21
873.7465197224001
 31
0.0
  0
LINE
  5
112
330
47
100
AcDbEntity
  8
0
  6
Continuous
 62
     7
100
AcDbLine
 10
203.7251426195045
 20
883.9491491926809
 30
0.0
 11
203.8407328944052
 21
882.5309794905637
 31
0.0
  0
LINE
  5
113
330
47
100
AcDbEntity
  8
0
  6
Continuous
 62
     7
100
AcDbLine
 10
203.8407328944052
 20
882.5309794905637
 30
0.0
 11
204.6130440754697
 21
882.372497761568
 31
0.0
  0
LINE
  5
114
330
47
100
AcDbEntity
  8
0
  6
Continuous
 62
     7
100
AcDbLine
 10
199.0712117393172
 20
874.029322049336
 30
0.0
 11
198.9605552426001
 21
874.7038070786477
 31
0.0
  0
LINE
  5
115
330
47
100
AcDbEntity
  8
0
  6
Continuous
 62
     7
100
AcDbLine
 10
199.0712117393172
 20
874.029322049336
 30
0.0
 11
200.3369647308909
 21
875.125496294945
 31
0.0
  0
LINE
  5
116
330
47
100
AcDbEntity
  8
0
  6
Continuous
 62
     7
100
AcDbLine
 10
207.8105552429386
 20
882.3681319024332
 30
0.0
 11
205.2214828583839
 21
882.8994212042194
 31
0.0
  0
LINE
  5
117
330
47
100
AcDbEntity
  8
0
  6
Continuous
 62
     7
100
AcDbLine
 10
200.3337432077113
 20
875.1650209497044
 30
0.0
 11
206.1841514147159
 21
873.7716380859292
 31
0.0
  0
LINE
  5
118
330
47
100
AcDbEntity
  8
0
  6
Continuous
 62
     7
100
AcDbLine
 10
207.9151332207025
 20
881.7306972963496
 30
0.0
 11
207.8105552429386
 21
882.3681319024332
 31
0.0
  0
LINE
  5
119
330
47
100
AcDbEntity
  8
0
  6
Continuous
 62
     7
100
AcDbLine
 10
196.3714828581111
 20
875.2350963804909
 30
0.0
 11
205.2214828583839
 21
882.8994212042194
 31
0.0
  0
LINE
  5
11A
330
47
100
AcDbEntity
  8
0
  6
Continuous
 62
     7
100
AcDbLine
 10
200.4493605041194
 20
873.7465197224001
 30
0.0
 11
199.0712117393172
 21
874.029322049336
 31
0.0
  0
LINE
  5
11B
330
47
100
AcDbEntity
  8
0
  6
Continuous
 62
     7
100
AcDbLine
 10
206.1841514147159
 20
873.7716380859292
 30
0.0
 11
212.0101063218825
 21
872.1878388926424
 31
0.0
  0
LINE
  5
11C
330
47
100
AcDbEntity
  8
0
  6
Continuous
 62
     7
100
AcDbLine
 10
192.5245347355707
 20
876.713274138272
 30
0.0
 11
192.5245347355706
 21
873.4827006537996
 31
0.0
  0
LINE
  5
11D
330
47
100
AcDbEntity
  8
0
  6
Continuous
 62
     7
100
AcDbLine
 10
198.9605552426001
 20
874.7038070786477
 30
0.0
 11
207.8105552429386
 21
882.3681319024332
 31
0.0
  0
LINE
  5
11E
330
47
100
AcDbEntity
  8
0
  6
Continuous
 62
     7
100
AcDbLine
 10
200.3337432077113
 20
875.1650209497044
 30
0.0
 11
209.1837432087528
 21
882.829345773395
 31
0.0
  0
LINE
  5
11F
330
47
100
AcDbEntity
  8
0
  6
Continuous
 62
     7
100
AcDbLine
 10
232.7175173801622
 20
874.6158203185057
 30
0.0
 11
225.8770287556961
 21
868.6917833960612
 31
0.0
  0
LINE
  5
120
330
47
100
AcDbEntity
  8
0
  6
Continuous
 62
     7
100
AcDbLine
 10
232.7472190013795
 20
874.9261002143955
 30
0.0
 11
232.7175173801622
 21
874.6158203185057
 31
0.0
  0
LINE
  5
121
330
47
100
AcDbEntity
  8
0
  6
Continuous
 62
     7
100
AcDbLine
 10
228.7039183688698
 20
822.9776095278963
 30
0.0
 11
228.7039183686962
 21
827.0334951622366
 31
0.0
  0
LINE
  5
122
330
47
100
AcDbEntity
  8
0
  6
Continuous
 62
     7
100
AcDbLine
 10
231.3019945801572
 20
822.2276095278391
 30
0.0
 11
231.7019945802403
 21
822.5740196894249
 31
0.0
  0
LINE
  5
123
330
47
100
AcDbEntity
  8
0
  6
Continuous
 62
     7
100
AcDbLine
 10
231.4956781713759
 20
826.2275835254416
 30
0.0
 11
231.4956778779792
 21
836.2013799024814
 31
0.0
  0
LINE
  5
124
330
47
100
AcDbEntity
  8
0
  6
Continuous
 62
     7
100
AcDbLine
 10
230.7665858757811
 20
836.0607492659998
 30
0.0
 11
231.3789347129408
 21
843.0014033659266
 31
0.0
  0
LINE
  5
125
330
47
100
AcDbEntity
  8
0
  6
Continuous
 62
     7
100
AcDbLine
 10
230.7665858757811
 20
836.0607492659998
 30
0.0
 11
229.8931109836893
 21
837.5652439357101
 31
0.0
  0
LINE
  5
126
330
47
100
AcDbEntity
  8
0
  6
Continuous
 62
     7
100
AcDbLine
 10
229.8931109836893
 20
837.5652439357101
 30
0.0
 11
229.7636690923322
 21
858.792272943936
 31
0.0
  0
LINE
  5
127
330
47
100
AcDbEntity
  8
0
  6
Continuous
 62
     7
100
AcDbLine
 10
231.7019945802403
 20
826.4062590239854
 30
0.0
 11
231.7019945802403
 21
822.5740196894249
 31
0.0
  0
LINE
  5
128
330
47
100
AcDbEntity
  8
0
  6
Continuous
 62
     7
100
AcDbLine
 10
231.3019945801572
 20
826.2834951622054
 30
0.0
 11
231.3019945801572
 21
822.2276095278391
 31
0.0
  0
LINE
  5
129
330
47
100
AcDbEntity
  8
0
  6
Continuous
 62
     7
100
AcDbLine
 10
230.9825629945613
 20
838.5087370533292
 30
0.0
 11
229.8931109836893
 21
837.5652439357101
 31
0.0
  0
LINE
  5
12A
330
47
100
AcDbEntity
  8
0
  6
Continuous
 62
     7
100
AcDbLine
 10
231.3019945801572
 20
822.2276095278391
 30
0.0
 11
228.7039183688698
 21
822.9776095278963
 31
0.0
  0
LINE
  5
12B
330
47
100
AcDbEntity
  8
0
  6
Continuous
 62
     7
100
AcDbLine
 10
225.6472190011866
 20
868.7773198480631
 30
0.0
 11
232.7472190013795
 21
874.9261002143955
 31
0.0
  0
LINE
  5
12C
330
47
100
AcDbEntity
  8
0
  6
Continuous
 62
     7
100
AcDbLine
 10
226.6860613021329
 20
878.0723462541007
 30
0.0
 11
232.536469484077
 21
876.0879943733943
 31
0.0
  0
LINE
  5
12D
330
47
100
AcDbEntity
  8
0
  6
Continuous
 62
     7
100
AcDbLine
 10
204.2839559889152
 20
833.823980881118
 30
0.0
 11
204.2839559887284
 21
834.082931089074
 31
0.0
  0
LINE
  5
12E
330
47
100
AcDbEntity
  8
0
  6
Continuous
 62
     7
100
AcDbLine
 10
198.5662342879205
 20
831.6776095359022
 30
0.0
 11
198.9662342880035
 21
832.0240196974879
 31
0.0
  0
LINE
  5
12F
330
47
100
AcDbEntity
  8
0
  6
Continuous
 62
     7
100
AcDbLine
 10
198.5662342879205
 20
835.7334951706304
 30
0.0
 11
198.5662342879205
 21
831.6776095359022
 31
0.0
  0
LINE
  5
130
330
47
100
AcDbEntity
  8
0
  6
Continuous
 62
     7
100
AcDbLine
 10
195.9681580766331
 20
832.4276095359593
 30
0.0
 11
195.9681580764595
 21
836.4834951706615
 31
0.0
  0
LINE
  5
131
330
47
100
AcDbEntity
  8
0
  6
Continuous
 62
     7
100
AcDbLine
 10
198.9662342880035
 20
835.6180251167685
 30
0.0
 11
198.9662342880035
 21
832.0240196974879
 31
0.0
  0
LINE
  5
132
330
47
100
AcDbEntity
  8
0
  6
Continuous
 62
     7
100
AcDbLine
 10
193.3039576237835
 20
863.3653947379354
 30
0.0
 11
192.8709449752716
 21
862.9903947841641
 31
0.0
  0
LINE
  5
133
330
47
100
AcDbEntity
  8
0
  6
Continuous
 62
     7
100
AcDbLine
 10
193.3039576237835
 20
865.5304582784224
 30
0.0
 11
192.8709449215324
 21
865.1554582781117
 31
0.0
  0
LINE
  5
134
330
47
100
AcDbEntity
  8
0
  6
Continuous
 62
     7
100
AcDbLine
 10
193.3039576234241
 20
873.2577006467423
 30
0.0
 11
193.303957623424
 21
871.7756516213103
 31
0.0
  0
LINE
  5
135
330
47
100
AcDbEntity
  8
0
  6
Continuous
 62
     7
100
AcDbLine
 10
193.3039576226836
 20
867.6955217882004
 30
0.0
 11
192.8709449204325
 21
867.3205217878897
 31
0.0
  0
LINE
  5
136
330
47
100
AcDbEntity
  8
0
  6
Continuous
 62
     7
100
AcDbLine
 10
192.5245350452894
 20
837.4775835126783
 30
0.0
 11
192.5245350452894
 21
860.9586645650757
 31
0.0
  0
LINE
  5
137
330
47
100
AcDbEntity
  8
0
  6
Continuous
 62
     7
100
AcDbLine
 10
193.3039576234241
 20
873.2577006467423
 30
0.0
 11
192.5245347355706
 21
873.4827006537996
 31
0.0
  0
LINE
  5
138
330
47
100
AcDbEntity
  8
0
  6
Continuous
 62
     7
100
AcDbLine
 10
193.3039576237836
 20
869.8605852973428
 30
0.0
 11
192.8709449215325
 21
869.485585297032
 31
0.0
  0
LINE
  5
139
330
47
100
AcDbEntity
  8
0
  6
Continuous
 62
     7
100
AcDbLine
 10
193.3039576237837
 20
872.0256488068039
 30
0.0
 11
192.8709449215326
 21
871.6506488064931
 31
0.0
  0
LINE
  5
13A
330
47
100
AcDbEntity
  8
0
  6
Continuous
 62
     7
100
AcDbLine
 10
198.5662342879205
 20
831.6776095359022
 30
0.0
 11
195.9681580766331
 21
832.4276095359593
 31
0.0
  0
LINE
  5
13B
330
47
100
AcDbEntity
  8
0
  6
Continuous
 62
     7
100
AcDbLine
 10
231.4956781713759
 20
826.2275835254416
 30
0.0
 11
192.5245350452894
 21
837.4775835126783
 31
0.0
  0
ENDBLK
  5
49
330
47
100
AcDbEntity
  8
0
100
AcDbBlockEnd
  0
BLOCK
  5
4C
330
4A
100
AcDbEntity
  8
0
100
AcDbBlockBegin
  2
Allg1
 70
     0
 10
235.0000000000005
 20
862.9999999999999
 30
0.0
  3
Allg1
  1

  0
INSERT
  5
4B
330
4A
100
AcDbEntity
  8
0
100
AcDbBlockReference
  2
PT_IQ_1X2_24DC_P-select__1
 10
192.5245347355706
 20
822.2276095278391
 30
0.0
  0
MTEXT
  5
13D
330
4A
100
AcDbEntity
  8
1
 62
     6
100
AcDbMText
 10
217.60961890769
 20
814.6172045851263
 30
0.0
 40
5.0
 41
0.0
 71
     2
 72
     1
  1
 
  7
CONVERTER_11
 73
     1
 44
1.32052821128451
  0
ENDBLK
  5
4D
330
4A
100
AcDbEntity
  8
0
100
AcDbBlockEnd
  0
BLOCK
  5
4F
330
4E
100
AcDbEntity
  8
0
100
AcDbBlockBegin
  2
PT_IQ_1X2_24DC_P-select__2
 70
     0
 10
78.14379054415394
 20
839.349999753442
 30
0.0
  3
PT_IQ_1X2_24DC_P-select__2
  1

  0
LINE
  5
13E
330
4E
100
AcDbEntity
  8
0
  6
Continuous
 62
     7
100
AcDbLine
 10
78.14379054415394
 20
857.0499997537922
 30
0.0
 11
78.14379054571017
 21
839.349999753442
 31
0.0
  0
LINE
  5
13F
330
4E
100
AcDbEntity
  8
0
  6
Continuous
 62
     7
100
AcDbLine
 10
82.58586325629231
 20
839.3499997536445
 30
0.0
 11
82.58586325551411
 21
857.0499997541901
 31
0.0
  0
LINE
  5
140
330
4E
100
AcDbEntity
  8
0
  6
Continuous
 62
     7
100
AcDbLine
 10
85.70324164889891
 20
839.3499997537814
 30
0.0
 11
85.70324164810961
 21
857.049999754464
 31
0.0
  0
LINE
  5
141
330
4E
100
AcDbEntity
  8
0
  6
Continuous
 62
     7
100
AcDbLine
 10
85.57546653256452
 20
839.349999753776
 30
0.0
 11
85.57546653178642
 21
857.0499997544531
 31
0.0
  0
LINE
  5
142
330
4E
100
AcDbEntity
  8
0
  6
Continuous
 62
     7
100
AcDbLine
 10
82.58286017814652
 20
857.0499997541896
 30
0.0
 11
82.58286017892492
 21
839.349999753644
 31
0.0
  0
LINE
  5
143
330
4E
100
AcDbEntity
  8
0
  6
Continuous
 62
     7
100
AcDbLine
 10
80.8580383761254
 20
857.0499997540385
 30
0.0
 11
80.99151052878132
 21
857.0499997540495
 31
0.0
  0
LINE
  5
144
330
4E
100
AcDbEntity
  8
0
  6
Continuous
 62
     7
100
AcDbLine
 10
80.99151052877582
 20
839.349999753574
 30
0.0
 11
80.99151052878132
 21
857.0499997540495
 31
0.0
  0
LINE
  5
145
330
4E
100
AcDbEntity
  8
0
  6
Continuous
 62
     7
100
AcDbLine
 10
87.16108741517431
 20
839.3499997538462
 30
0.0
 11
87.16108741516781
 21
857.0499997545928
 31
0.0
  0
LINE
  5
146
330
4E
100
AcDbEntity
  8
0
  6
Continuous
 62
     7
100
AcDbLine
 10
93.91655692154092
 20
839.3499997541433
 30
0.0
 11
93.91655691998601
 21
857.049999755187
 31
0.0
  0
LINE
  5
147
330
4E
100
AcDbEntity
  8
0
  6
Continuous
 62
     7
100
AcDbLine
 10
78.14379054571017
 20
839.349999753442
 30
0.0
 11
80.8580383776821
 21
839.3499997535689
 31
0.0
  0
LINE
  5
148
330
4E
100
AcDbEntity
  8
0
  6
Continuous
 62
     7
100
AcDbLine
 10
80.8580383776821
 20
839.3499997535689
 30
0.0
 11
80.8580383761254
 21
857.0499997540385
 31
0.0
  0
LINE
  5
149
330
4E
100
AcDbEntity
  8
0
  6
Continuous
 62
     7
100
AcDbLine
 10
100.6437901894195
 20
839.3499997544391
 30
0.0
 11
100.6437901878274
 21
857.0499997557785
 31
0.0
  0
LINE
  5
14A
330
4E
100
AcDbEntity
  8
0
  6
Continuous
 62
     7
100
AcDbLine
 10
125.6880855254447
 20
857.049999757976
 30
0.0
 11
125.8562109999993
 21
857.0499997579896
 31
0.0
  0
LINE
  5
14B
330
4E
100
AcDbEntity
  8
0
  6
Continuous
 62
     7
100
AcDbLine
 10
87.16108741516781
 20
857.0499997545928
 30
0.0
 11
93.91655691998601
 21
857.049999755187
 31
0.0
  0
LINE
  5
14C
330
4E
100
AcDbEntity
  8
0
  6
Continuous
 62
     7
100
AcDbLine
 10
85.70324164810961
 20
857.049999754464
 30
0.0
 11
87.16108741516781
 21
857.0499997545928
 31
0.0
  0
LINE
  5
14D
330
4E
100
AcDbEntity
  8
0
  6
Continuous
 62
     7
100
AcDbLine
 10
82.58586325551411
 20
857.0499997541901
 30
0.0
 11
82.58286017814652
 21
857.0499997541896
 31
0.0
  0
LINE
  5
14E
330
4E
100
AcDbEntity
  8
0
  6
Continuous
 62
     7
100
AcDbLine
 10
85.70324164810961
 20
857.049999754464
 30
0.0
 11
85.57546653178642
 21
857.0499997544531
 31
0.0
  0
LINE
  5
14F
330
4E
100
AcDbEntity
  8
0
  6
Continuous
 62
     7
100
AcDbLine
 10
85.57546653178642
 20
857.0499997544531
 30
0.0
 11
82.58586325551411
 21
857.0499997541901
 31
0.0
  0
LINE
  5
150
330
4E
100
AcDbEntity
  8
0
  6
Continuous
 62
     7
100
AcDbLine
 10
80.99151052878132
 20
857.0499997540495
 30
0.0
 11
82.58286017814652
 21
857.0499997541896
 31
0.0
  0
LINE
  5
151
330
4E
100
AcDbEntity
  8
0
  6
Continuous
 62
     7
100
AcDbLine
 10
107.3710235399657
 20
857.0499997563699
 30
0.0
 11
114.1264930172234
 21
857.0499997569638
 31
0.0
  0
LINE
  5
152
330
4E
100
AcDbEntity
  8
0
  6
Continuous
 62
     7
100
AcDbLine
 10
93.91655691998601
 20
857.049999755187
 30
0.0
 11
100.6437901878274
 21
857.0499997557785
 31
0.0
  0
LINE
  5
153
330
4E
100
AcDbEntity
  8
0
  6
Continuous
 62
     7
100
AcDbLine
 10
100.6437901878274
 20
857.0499997557785
 30
0.0
 11
107.3710235399657
 21
857.0499997563699
 31
0.0
  0
LINE
  5
154
330
4E
100
AcDbEntity
  8
0
  6
Continuous
 62
     7
100
AcDbLine
 10
114.1264930172234
 20
857.0499997569638
 30
0.0
 11
120.2704427311021
 21
857.0499997575037
 31
0.0
  0
LINE
  5
155
330
4E
100
AcDbEntity
  8
0
  6
Continuous
 62
     7
100
AcDbLine
 10
78.14379054415394
 20
857.0499997537922
 30
0.0
 11
80.8580383761254
 21
857.0499997540385
 31
0.0
  0
LINE
  5
156
330
4E
100
AcDbEntity
  8
0
  6
Continuous
 62
     7
100
AcDbLine
 10
124.1000116820599
 20
857.0499997578365
 30
0.0
 11
125.6880855254447
 21
857.049999757976
 31
0.0
  0
LINE
  5
157
330
4E
100
AcDbEntity
  8
0
  6
Continuous
 62
     7
100
AcDbLine
 10
119.9284971668783
 20
841.0999997561559
 30
0.0
 11
119.9284971668732
 21
855.2999997554771
 31
0.0
  0
LINE
  5
158
330
4E
100
AcDbEntity
  8
0
  6
Continuous
 62
     7
100
AcDbLine
 10
120.2704427326583
 20
839.3499997553015
 30
0.0
 11
123.1437902475575
 21
839.3499997554277
 31
0.0
  0
LINE
  5
159
330
4E
100
AcDbEntity
  8
0
  6
Continuous
 62
     7
100
AcDbLine
 10
120.2704427311021
 20
857.0499997575037
 30
0.0
 11
123.1437902458693
 21
857.0499997577562
 31
0.0
  0
LINE
  5
15A
330
4E
100
AcDbEntity
  8
0
  6
Continuous
 62
     7
100
AcDbLine
 10
124.1000116836098
 20
839.349999755466
 30
0.0
 11
124.1000116820599
 21
857.0499997578365
 31
0.0
  0
LINE
  5
15B
330
4E
100
AcDbEntity
  8
0
  6
Continuous
 62
     7
100
AcDbLine
 10
123.9005891216742
 20
839.3499997554566
 30
0.0
 11
123.900589120121
 21
857.0499997578183
 31
0.0
  0
LINE
  5
15C
330
4E
100
AcDbEntity
  8
0
  6
Continuous
 62
     7
100
AcDbLine
 10
120.2704427311021
 20
857.0499997575037
 30
0.0
 11
120.2704427326583
 21
839.3499997553015
 31
0.0
  0
LINE
  5
15D
330
4E
100
AcDbEntity
  8
0
  6
Continuous
 62
     7
100
AcDbLine
 10
114.1264930172234
 20
857.0499997569638
 30
0.0
 11
114.1264930187796
 21
839.3499997550316
 31
0.0
  0
LINE
  5
15E
330
4E
100
AcDbEntity
  8
0
  6
Continuous
 62
     7
100
AcDbLine
 10
107.3710235399657
 20
857.0499997563699
 30
0.0
 11
107.3710235415226
 21
839.3499997547348
 31
0.0
  0
LINE
  5
15F
330
4E
100
AcDbEntity
  8
0
  6
Continuous
 62
     7
100
AcDbLine
 10
123.1437902458693
 20
857.0499997577562
 30
0.0
 11
123.1437902475575
 21
839.3499997554277
 31
0.0
  0
LINE
  5
160
330
4E
100
AcDbEntity
  8
0
  6
Continuous
 62
     7
100
AcDbLine
 10
114.1264930187796
 20
839.3499997550316
 30
0.0
 11
120.2704427326583
 21
839.3499997553015
 31
0.0
  0
LINE
  5
161
330
4E
100
AcDbEntity
  8
0
  6
Continuous
 62
     7
100
AcDbLine
 10
87.16108741517431
 20
839.3499997538462
 30
0.0
 11
93.91655692154092
 21
839.3499997541433
 31
0.0
  0
LINE
  5
162
330
4E
100
AcDbEntity
  8
0
  6
Continuous
 62
     7
100
AcDbLine
 10
87.16108741517431
 20
839.3499997538462
 30
0.0
 11
85.70324164889891
 21
839.3499997537814
 31
0.0
  0
LINE
  5
163
330
4E
100
AcDbEntity
  8
0
  6
Continuous
 62
     7
100
AcDbLine
 10
82.58286017892492
 20
839.349999753644
 30
0.0
 11
82.58586325629231
 21
839.3499997536445
 31
0.0
  0
LINE
  5
164
330
4E
100
AcDbEntity
  8
0
  6
Continuous
 62
     7
100
AcDbLine
 10
85.70324164889891
 20
839.3499997537814
 30
0.0
 11
85.57546653256452
 21
839.349999753776
 31
0.0
  0
LINE
  5
165
330
4E
100
AcDbEntity
  8
0
  6
Continuous
 62
     7
100
AcDbLine
 10
85.57546653256452
 20
839.349999753776
 30
0.0
 11
82.58586325629231
 21
839.3499997536445
 31
0.0
  0
LINE
  5
166
330
4E
100
AcDbEntity
  8
0
  6
Continuous
 62
     7
100
AcDbLine
 10
80.8580383776821
 20
839.3499997535689
 30
0.0
 11
80.99151052877582
 21
839.349999753574
 31
0.0
  0
LINE
  5
167
330
4E
100
AcDbEntity
  8
0
  6
Continuous
 62
     7
100
AcDbLine
 10
82.58286017892492
 20
839.349999753644
 30
0.0
 11
80.99151052877582
 21
839.349999753574
 31
0.0
  0
LINE
  5
168
330
4E
100
AcDbEntity
  8
0
  6
Continuous
 62
     7
100
AcDbLine
 10
100.6437901894195
 20
839.3499997544391
 30
0.0
 11
107.3710235415226
 21
839.3499997547348
 31
0.0
  0
LINE
  5
169
330
4E
100
AcDbEntity
  8
0
  6
Continuous
 62
     7
100
AcDbLine
 10
93.91655692154092
 20
839.3499997541433
 30
0.0
 11
100.6437901894195
 21
839.3499997544391
 31
0.0
  0
LINE
  5
16A
330
4E
100
AcDbEntity
  8
0
  6
Continuous
 62
     7
100
AcDbLine
 10
115.3802085703741
 20
841.0999997561561
 30
0.0
 11
119.9284971668783
 21
841.0999997561559
 31
0.0
  0
LINE
  5
16B
330
4E
100
AcDbEntity
  8
0
  6
Continuous
 62
     7
100
AcDbLine
 10
119.9284971668783
 20
841.0999997561559
 30
0.0
 11
119.9642482229502
 21
841.099999756156
 31
0.0
  0
LINE
  5
16C
330
4E
100
AcDbEntity
  8
0
  6
Continuous
 62
     7
100
AcDbLine
 10
107.3710235415226
 20
839.3499997547348
 30
0.0
 11
114.1264930187796
 21
839.3499997550316
 31
0.0
  0
LINE
  5
16D
330
4E
100
AcDbEntity
  8
0
  6
Continuous
 62
     7
100
AcDbLine
 10
124.1000116836098
 20
839.349999755466
 30
0.0
 11
125.6880855262228
 21
839.3499997555357
 31
0.0
  0
LINE
  5
16E
330
4E
100
AcDbEntity
  8
0
  6
Continuous
 62
     7
100
AcDbLine
 10
125.6880855262228
 20
839.3499997555357
 30
0.0
 11
125.6880855254447
 21
857.049999757976
 31
0.0
  0
LINE
  5
16F
330
4E
100
AcDbEntity
  8
0
  6
Continuous
 62
     7
100
AcDbLine
 10
125.6880855262228
 20
839.3499997555357
 30
0.0
 11
125.8562110015545
 21
839.3499997555418
 31
0.0
  0
LINE
  5
170
330
4E
100
AcDbEntity
  8
0
  6
Continuous
 62
     7
100
AcDbLine
 10
125.8562110015545
 20
839.3499997555418
 30
0.0
 11
125.8562109999993
 21
857.0499997579896
 31
0.0
  0
LINE
  5
171
330
4E
100
AcDbEntity
  8
0
  6
Continuous
 62
     7
100
AcDbLine
 10
119.9642482229405
 20
855.2999997554772
 30
0.0
 11
119.9284971668732
 21
855.2999997554771
 31
0.0
  0
LINE
  5
172
330
4E
100
AcDbEntity
  8
0
  6
Continuous
 62
     7
100
AcDbLine
 10
123.1437902458693
 20
857.0499997577562
 30
0.0
 11
123.900589120121
 21
857.0499997578183
 31
0.0
  0
LINE
  5
173
330
4E
100
AcDbEntity
  8
0
  6
Continuous
 62
     7
100
AcDbLine
 10
123.900589120121
 20
857.0499997578183
 30
0.0
 11
124.1000116820599
 21
857.0499997578365
 31
0.0
  0
LINE
  5
174
330
4E
100
AcDbEntity
  8
0
  6
Continuous
 62
     7
100
AcDbLine
 10
119.9284971668732
 20
855.2999997554771
 30
0.0
 11
115.3802085703645
 21
855.2999997554774
 31
0.0
  0
LINE
  5
175
330
4E
100
AcDbEntity
  8
0
  6
Continuous
 62
     7
100
AcDbLine
 10
115.3802085703741
 20
841.0999997561561
 30
0.0
 11
115.3802085703645
 21
855.2999997554774
 31
0.0
  0
LINE
  5
176
330
4E
100
AcDbEntity
  8
0
  6
Continuous
 62
     7
100
AcDbLine
 10
123.1437902475575
 20
839.3499997554277
 30
0.0
 11
123.9005891216742
 21
839.3499997554566
 31
0.0
  0
LINE
  5
177
330
4E
100
AcDbEntity
  8
0
  6
Continuous
 62
     7
100
AcDbLine
 10
123.9005891216742
 20
839.3499997554566
 30
0.0
 11
124.1000116836098
 21
839.349999755466
 31
0.0
  0
LINE
  5
178
330
4E
100
AcDbEntity
  8
0
  6
Continuous
 62
     7
100
AcDbLine
 10
119.9642482229405
 20
855.2999997554772
 30
0.0
 11
119.9642482229502
 21
841.099999756156
 31
0.0
  0
ENDBLK
  5
50
330
4E
100
AcDbEntity
  8
0
100
AcDbBlockEnd
  0
BLOCK
  5
53
330
51
100
AcDbEntity
  8
0
100
AcDbBlockBegin
  2
Drfsicht2
 70
     0
 10
117.0000004034883
 20
857.0
 30
0.0
  3
Drfsicht2
  1

  0
INSERT
  5
52
330
51
100
AcDbEntity
  8
0
100
AcDbBlockReference
  2
PT_IQ_1X2_24DC_P-select__2
 10
78.14379054415394
 20
839.349999753442
 30
0.0
  0
MTEXT
  5
179
330
51
100
AcDbEntity
  8
1
 62
     6
100
AcDbMText
 10
102.000000403759
 20
834.3500001430168
 30
0.0
 40
5.0
 41
0.0
 71
     2
 72
     1
  1
 
  7
CONVERTER_11
 73
     1
 44
1.32052821128451
  0
DIMENSION
  5
184
330
51
100
AcDbEntity
  8
1
100
AcDbDimension
  2
*D17
 10
68.14379054415394
 20
839.3499997535689
 30
0.0
 11
64.71879054415395
 21
848.888243324417
 31
0.0
 70
    32
  1
<>
 71
     5
 42
-1.0
 53
90.0
  3
ME10_DIM_10
100
AcDbAlignedDimension
 13
78.14379054415394
 23
857.0499997537922
 33
0.0
 14
80.8580383776821
 24
839.3499997535689
 34
0.0
 50
90.0
100
AcDbRotatedDimension
  0
ENDBLK
  5
54
330
51
100
AcDbEntity
  8
0
100
AcDbBlockEnd
  0
BLOCK
  5
56
330
55
100
AcDbEntity
  8
0
100
AcDbBlockBegin
  2
PT_IQ_1X2_24DC_P-select__3
 70
     0
 10
200.556210403489
 20
900.0499994530037
 30
0.0
  3
PT_IQ_1X2_24DC_P-select__3
  1

  0
LINE
  5
185
330
55
100
AcDbEntity
  8
0
  6
Continuous
 62
     7
100
AcDbLine
 10
208.3686658376274
 20
900.0499994530109
 30
0.0
 11
208.3686658376274
 21
906.8999994530171
 31
0.0
  0
LINE
  5
186
330
55
100
AcDbEntity
  8
0
  6
Continuous
 62
     7
100
AcDbLine
 10
208.3686658376274
 20
900.0499994530109
 30
0.0
 11
205.3686658376274
 21
900.0499994530109
 31
0.0
  0
LINE
  5
187
330
55
100
AcDbEntity
  8
0
  6
Continuous
 62
     7
100
AcDbLine
 10
239.5686309554391
 20
900.9676561553027
 30
0.0
 11
235.968630955319
 21
900.9676561553027
 31
0.0
  0
LINE
  5
188
330
55
100
AcDbEntity
  8
0
  6
Continuous
 62
     7
100
AcDbLine
 10
235.968630955319
 20
906.8999994530151
 30
0.0
 11
235.968630955319
 21
900.9676561553027
 31
0.0
  0
LINE
  5
189
330
55
100
AcDbEntity
  8
0
  6
Continuous
 62
     7
100
AcDbLine
 10
235.968630955319
 20
906.8999994530151
 30
0.0
 11
208.3686658376274
 21
906.8999994530171
 31
0.0
  0
LINE
  5
18A
330
55
100
AcDbEntity
  8
0
  6
Continuous
 62
     7
100
AcDbLine
 10
208.3686658376274
 20
906.8999994530171
 30
0.0
 11
205.3686658376274
 21
906.8999994530171
 31
0.0
  0
LINE
  5
18B
330
55
100
AcDbEntity
  8
0
  6
Continuous
 62
     7
100
AcDbLine
 10
205.3686658376274
 20
906.8999994530171
 30
0.0
 11
203.2686309103875
 21
906.8999994530116
 31
0.0
  0
LINE
  5
18C
330
55
100
AcDbEntity
  8
0
  6
Continuous
 62
     7
100
AcDbLine
 10
243.1686658709716
 20
906.8999994530171
 30
0.0
 11
239.5686309554391
 21
906.8999994530151
 31
0.0
  0
LINE
  5
18D
330
55
100
AcDbEntity
  8
0
  6
Continuous
 62
     7
100
AcDbLine
 10
239.5686309554391
 20
906.8999994530151
 30
0.0
 11
235.968630955319
 21
906.8999994530151
 31
0.0
  0
LINE
  5
18E
330
55
100
AcDbEntity
  8
0
  6
Continuous
 62
     7
100
AcDbLine
 10
248.2686308593344
 20
906.8999994530116
 30
0.0
 11
246.1686658709716
 21
906.8999994530171
 31
0.0
  0
LINE
  5
18F
330
55
100
AcDbEntity
  8
0
  6
Continuous
 62
     7
100
AcDbLine
 10
246.1686658709716
 20
906.8999994530171
 30
0.0
 11
243.1686658709716
 21
906.8999994530171
 31
0.0
  0
LINE
  5
190
330
55
100
AcDbEntity
  8
0
  6
Continuous
 62
     7
100
AcDbLine
 10
239.5686309554391
 20
900.9676561553027
 30
0.0
 11
239.5686309554391
 21
906.8999994530151
 31
0.0
  0
LINE
  5
191
330
55
100
AcDbEntity
  8
0
  6
Continuous
 62
     7
100
AcDbLine
 10
205.3686658376274
 20
906.8999994530171
 30
0.0
 11
205.3686658376274
 21
900.0499994530109
 31
0.0
  0
LINE
  5
192
330
55
100
AcDbEntity
  8
0
  6
Continuous
 62
     7
100
AcDbLine
 10
247.3686311879595
 20
938.4751274970336
 30
0.0
 11
247.3686311879596
 21
936.7638046894641
 31
0.0
  0
LINE
  5
193
330
55
100
AcDbEntity
  8
0
  6
Continuous
 62
     7
100
AcDbLine
 10
247.3686311879595
 20
940.9751274970334
 30
0.0
 11
247.3686311879595
 21
939.2638046894641
 31
0.0
  0
LINE
  5
194
330
55
100
AcDbEntity
  8
0
  6
Continuous
 62
     7
100
AcDbLine
 10
247.3686311892296
 20
943.4751274970328
 30
0.0
 11
247.3686311892296
 21
941.7638046894634
 31
0.0
  0
LINE
  5
195
330
55
100
AcDbEntity
  8
0
  6
Continuous
 62
     7
100
AcDbLine
 10
247.3686311879594
 20
945.9751274970328
 30
0.0
 11
247.3686311879594
 21
944.2638046894621
 31
0.0
  0
LINE
  5
196
330
55
100
AcDbEntity
  8
0
  6
Continuous
 62
     7
100
AcDbLine
 10
247.3686311879593
 20
948.4751274970328
 30
0.0
 11
247.3686311879593
 21
946.7638046894621
 31
0.0
  0
LINE
  5
197
330
55
100
AcDbEntity
  8
0
  6
Continuous
 62
     7
100
AcDbLine
 10
245.5543830273629
 20
952.494277220796
 30
0.0
 11
245.420910874707
 21
950.8952459938778
 31
0.0
  0
LINE
  5
198
330
55
100
AcDbEntity
  8
0
  6
Continuous
 62
     7
100
AcDbLine
 10
245.420910874707
 20
950.8952459938778
 30
0.0
 11
243.8295612253418
 21
951.0280769603738
 31
0.0
  0
LINE
  5
199
330
55
100
AcDbEntity
  8
0
  6
Continuous
 62
     7
100
AcDbLine
 10
243.8265581479742
 20
951.7809358269434
 30
0.0
 11
243.8295612253418
 21
951.0280769603738
 31
0.0
  0
LINE
  5
19A
330
55
100
AcDbEntity
  8
0
  6
Continuous
 62
     7
100
AcDbLine
 10
240.8369548717019
 20
952.0304799122331
 30
0.0
 11
243.8265581479742
 21
951.7809358269434
 31
0.0
  0
LINE
  5
19B
330
55
100
AcDbEntity
  8
0
  6
Continuous
 62
     7
100
AcDbLine
 10
240.7091797553788
 20
951.288537184729
 30
0.0
 11
240.8369548717019
 21
952.0304799122331
 31
0.0
  0
LINE
  5
19C
330
55
100
AcDbEntity
  8
0
  6
Continuous
 62
     7
100
AcDbLine
 10
201.0788527185636
 20
934.8051408710513
 30
0.0
 11
201.1311168255542
 21
934.3078811092678
 31
0.0
  0
LINE
  5
19D
330
55
100
AcDbEntity
  8
0
  6
Continuous
 62
     7
100
AcDbLine
 10
248.2686308593344
 20
934.0136163857919
 30
0.0
 11
247.3686311879596
 21
934.1868243285471
 31
0.0
  0
LINE
  5
19E
330
55
100
AcDbEntity
  8
0
  6
Continuous
 62
     7
100
AcDbLine
 10
201.5459385582982
 20
935.1445020771533
 30
0.0
 11
201.0788527185636
 21
934.8051408710513
 31
0.0
  0
LINE
  5
19F
330
55
100
AcDbEntity
  8
0
  6
Continuous
 62
     7
100
AcDbLine
 10
201.1311168255542
 20
934.3078811092678
 30
0.0
 11
201.6283777745006
 21
934.3601453410342
 31
0.0
  0
LINE
  5
1A0
330
55
100
AcDbEntity
  8
0
  6
Continuous
 62
     7
100
AcDbLine
 10
201.6283777745006
 20
934.3601453410342
 30
0.0
 11
201.8072597177304
 21
932.6581973388662
 31
0.0
  0
LINE
  5
1A1
330
55
100
AcDbEntity
  8
0
  6
Continuous
 62
     7
100
AcDbLine
 10
201.8072597177304
 20
932.6581973388662
 30
0.0
 11
201.3401738779957
 21
932.3188361327642
 31
0.0
  0
LINE
  5
1A2
330
55
100
AcDbEntity
  8
0
  6
Continuous
 62
     7
100
AcDbLine
 10
201.3401738779957
 20
932.3188361327642
 30
0.0
 11
201.3924379849864
 21
931.8215763709799
 31
0.0
  0
LINE
  5
1A3
330
55
100
AcDbEntity
  8
0
  6
Continuous
 62
     7
100
AcDbLine
 10
201.3924379849864
 20
931.8215763709799
 30
0.0
 11
201.8896989326697
 21
931.8738406026135
 31
0.0
  0
LINE
  5
1A4
330
55
100
AcDbEntity
  8
0
  6
Continuous
 62
     7
100
AcDbLine
 10
202.0685808758988
 20
930.1718926004517
 30
0.0
 11
201.8896989326697
 21
931.8738406026135
 31
0.0
  0
LINE
  5
1A5
330
55
100
AcDbEntity
  8
0
  6
Continuous
 62
     7
100
AcDbLine
 10
202.0685808758988
 20
930.1718926004517
 30
0.0
 11
201.6014950361553
 21
929.8325313943432
 31
0.0
  0
LINE
  5
1A6
330
55
100
AcDbEntity
  8
0
  6
Continuous
 62
     7
100
AcDbLine
 10
201.6014950361553
 20
929.8325313943432
 30
0.0
 11
201.653759143146
 21
929.3352716325589
 31
0.0
  0
LINE
  5
1A7
330
55
100
AcDbEntity
  8
0
  6
Continuous
 62
     7
100
AcDbLine
 10
201.653759143146
 20
929.3352716325589
 30
0.0
 11
202.1510200908202
 21
929.3875358641917
 31
0.0
  0
LINE
  5
1A8
330
55
100
AcDbEntity
  8
0
  6
Continuous
 62
     7
100
AcDbLine
 10
202.1510200908202
 20
929.3875358641917
 30
0.0
 11
202.5288314234913
 21
925.7929011502265
 31
0.0
  0
LINE
  5
1A9
330
55
100
AcDbEntity
  8
0
  6
Continuous
 62
     7
100
AcDbLine
 10
202.5288314234913
 20
925.7929011502265
 30
0.0
 11
201.3309018972532
 21
925.6458138993547
 31
0.0
  0
LINE
  5
1AA
330
55
100
AcDbEntity
  8
0
  6
Continuous
 62
     7
100
AcDbLine
 10
201.3309018972532
 20
925.6458138993547
 30
0.0
 11
201.4444237229306
 21
924.9290653005352
 31
0.0
  0
LINE
  5
1AB
330
55
100
AcDbEntity
  8
0
  6
Continuous
 62
     7
100
AcDbLine
 10
202.6185662571719
 20
923.9657642437469
 30
0.0
 11
203.2686309103875
 21
918.4167474406169
 31
0.0
  0
LINE
  5
1AC
330
55
100
AcDbEntity
  8
0
  6
Continuous
 62
     7
100
AcDbLine
 10
206.1419786723862
 20
952.5075668437714
 30
0.0
 11
203.268631157619
 21
952.2054853864113
 31
0.0
  0
LINE
  5
1AD
330
55
100
AcDbEntity
  8
0
  6
Continuous
 62
     7
100
AcDbLine
 10
205.2685827256589
 20
943.925127497019
 30
0.0
 11
203.268631157619
 21
943.925127497019
 31
0.0
  0
LINE
  5
1AE
330
55
100
AcDbEntity
  8
0
  6
Continuous
 62
     7
100
AcDbLine
 10
203.268631157619
 20
943.925127497019
 30
0.0
 11
203.268631157619
 21
952.2054853864113
 31
0.0
  0
LINE
  5
1AF
330
55
100
AcDbEntity
  8
0
  6
Continuous
 62
     7
100
AcDbLine
 10
203.2686309103875
 20
906.8999994530116
 30
0.0
 11
203.2686309103875
 21
918.4167474406169
 31
0.0
  0
LINE
  5
1B0
330
55
100
AcDbEntity
  8
0
  6
Continuous
 62
     7
100
AcDbLine
 10
212.2859283862649
 20
953.0207731392321
 30
0.0
 11
206.1419786723862
 21
952.5075668437714
 31
0.0
  0
LINE
  5
1B1
330
55
100
AcDbEntity
  8
0
  6
Continuous
 62
     7
100
AcDbLine
 10
204.1105141758609
 20
918.0113304624083
 30
0.0
 11
205.1191161040201
 21
919.4574129701475
 31
0.0
  0
LINE
  5
1B2
330
55
100
AcDbEntity
  8
0
  6
Continuous
 62
     7
100
AcDbLine
 10
205.2685827256589
 20
943.925127497019
 30
0.0
 11
205.1191161040201
 21
919.4574129701475
 31
0.0
  0
LINE
  5
1B3
330
55
100
AcDbEntity
  8
0
  6
Continuous
 62
     7
100
AcDbLine
 10
204.1105141758609
 20
918.0113304624083
 30
0.0
 11
203.4034346412943
 21
926.22982379783
 31
0.0
  0
LINE
  5
1B4
330
55
100
AcDbEntity
  8
0
  6
Continuous
 62
     7
100
AcDbLine
 10
202.6185662571719
 20
923.9657642437469
 30
0.0
 11
201.4444237229306
 21
924.9290653005352
 31
0.0
  0
LINE
  5
1B5
330
55
100
AcDbEntity
  8
0
  6
Continuous
 62
     7
100
AcDbLine
 10
200.8089455783899
 20
942.1565219003571
 30
0.0
 11
200.7243358780436
 21
942.8456126111445
 31
0.0
  0
LINE
  5
1B6
330
55
100
AcDbEntity
  8
0
  6
Continuous
 62
     7
100
AcDbLine
 10
200.8697956686484
 20
936.7941858478205
 30
0.0
 11
201.3670566150684
 21
936.8464500793215
 31
0.0
  0
LINE
  5
1B7
330
55
100
AcDbEntity
  8
0
  6
Continuous
 62
     7
100
AcDbLine
 10
200.8175315616581
 20
937.2914456096007
 30
0.0
 11
200.8697956686484
 21
936.7941858478205
 31
0.0
  0
LINE
  5
1B8
330
55
100
AcDbEntity
  8
0
  6
Continuous
 62
     7
100
AcDbLine
 10
201.2846174013928
 20
937.6308068157027
 30
0.0
 11
200.8175315616581
 21
937.2914456096007
 31
0.0
  0
LINE
  5
1B9
330
55
100
AcDbEntity
  8
0
  6
Continuous
 62
     7
100
AcDbLine
 10
201.1057354581625
 20
939.332754817875
 30
0.0
 11
201.2846174013928
 21
937.6308068157027
 31
0.0
  0
LINE
  5
1BA
330
55
100
AcDbEntity
  8
0
  6
Continuous
 62
     7
100
AcDbLine
 10
247.868631125906
 20
936.4751263404252
 30
0.0
 11
247.3686311879596
 21
936.7638046894641
 31
0.0
  0
LINE
  5
1BB
330
55
100
AcDbEntity
  8
0
  6
Continuous
 62
     7
100
AcDbLine
 10
201.7199925220406
 20
941.3192114333015
 30
0.0
 11
202.5118322833674
 21
941.4164371307014
 31
0.0
  0
LINE
  5
1BC
330
55
100
AcDbEntity
  8
0
  6
Continuous
 62
     7
100
AcDbLine
 10
202.5118322833674
 20
941.4164371307014
 30
0.0
 11
202.3124097214285
 21
943.0406035606859
 31
0.0
  0
LINE
  5
1BD
330
55
100
AcDbEntity
  8
0
  6
Continuous
 62
     7
100
AcDbLine
 10
202.3124097214285
 20
943.0406035606859
 30
0.0
 11
200.7243358780436
 21
942.8456126111445
 31
0.0
  0
LINE
  5
1BE
330
55
100
AcDbEntity
  8
0
  6
Continuous
 62
     7
100
AcDbLine
 10
200.8089455783899
 20
942.1565219003571
 30
0.0
 11
201.0232962432237
 21
940.1171115541234
 31
0.0
  0
LINE
  5
1BF
330
55
100
AcDbEntity
  8
0
  6
Continuous
 62
     7
100
AcDbLine
 10
200.556210403489
 20
939.7777503480214
 30
0.0
 11
200.6084745104793
 21
939.2804905862412
 31
0.0
  0
LINE
  5
1C0
330
55
100
AcDbEntity
  8
0
  6
Continuous
 62
     7
100
AcDbLine
 10
247.3686311879595
 20
935.9751274970342
 30
0.0
 11
247.868631125906
 21
935.9751274970342
 31
0.0
  0
LINE
  5
1C1
330
55
100
AcDbEntity
  8
0
  6
Continuous
 62
     7
100
AcDbLine
 10
201.0232962432237
 20
940.1171115541234
 30
0.0
 11
200.556210403489
 21
939.7777503480214
 31
0.0
  0
LINE
  5
1C2
330
55
100
AcDbEntity
  8
0
  6
Continuous
 62
     7
100
AcDbLine
 10
200.6084745104793
 20
939.2804905862412
 30
0.0
 11
201.1057354581625
 21
939.332754817875
 31
0.0
  0
LINE
  5
1C3
330
55
100
AcDbEntity
  8
0
  6
Continuous
 62
     7
100
AcDbLine
 10
247.3686311879595
 20
935.9751274970342
 30
0.0
 11
247.3686311879596
 21
934.1868243285471
 31
0.0
  0
LINE
  5
1C4
330
55
100
AcDbEntity
  8
0
  6
Continuous
 62
     7
100
AcDbLine
 10
201.3670566150684
 20
936.8464500793215
 30
0.0
 11
201.5459385582982
 21
935.1445020771533
 31
0.0
  0
LINE
  5
1C5
330
55
100
AcDbEntity
  8
0
  6
Continuous
 62
     7
100
AcDbLine
 10
248.2686308593344
 20
906.8999994530116
 30
0.0
 11
248.2686308593344
 21
934.0136163857919
 31
0.0
  0
LINE
  5
1C6
330
55
100
AcDbEntity
  8
0
  6
Continuous
 62
     7
100
AcDbLine
 10
248.2686312169668
 20
952.2054724388267
 30
0.0
 11
248.2686312169669
 21
948.4751274970328
 31
0.0
  0
LINE
  5
1C7
330
55
100
AcDbEntity
  8
0
  6
Continuous
 62
     7
100
AcDbLine
 10
246.1686658709716
 20
900.0499994530037
 30
0.0
 11
243.1686658709716
 21
900.0499994530037
 31
0.0
  0
LINE
  5
1C8
330
55
100
AcDbEntity
  8
0
  6
Continuous
 62
     7
100
AcDbLine
 10
247.868631125906
 20
936.4751263404252
 30
0.0
 11
247.868631125906
 21
935.9751274970342
 31
0.0
  0
LINE
  5
1C9
330
55
100
AcDbEntity
  8
0
  6
Continuous
 62
     7
100
AcDbLine
 10
247.8686311879586
 20
938.9751263045987
 30
0.0
 11
247.8686311879586
 21
938.4751274970336
 31
0.0
  0
LINE
  5
1CA
330
55
100
AcDbEntity
  8
0
  6
Continuous
 62
     7
100
AcDbLine
 10
247.8686311892287
 20
941.4751263045979
 30
0.0
 11
247.8686311892287
 21
940.9751274970336
 31
0.0
  0
LINE
  5
1CB
330
55
100
AcDbEntity
  8
0
  6
Continuous
 62
     7
100
AcDbLine
 10
247.8686311879585
 20
943.9751263045965
 30
0.0
 11
247.8686311879585
 21
943.4751274970328
 31
0.0
  0
LINE
  5
1CC
330
55
100
AcDbEntity
  8
0
  6
Continuous
 62
     7
100
AcDbLine
 10
247.8686311879585
 20
946.4751263045965
 30
0.0
 11
247.8686311879585
 21
945.9751274970328
 31
0.0
  0
LINE
  5
1CD
330
55
100
AcDbEntity
  8
0
  6
Continuous
 62
     7
100
AcDbLine
 10
243.1686658709716
 20
906.8999994530171
 30
0.0
 11
243.1686658709716
 21
900.0499994530037
 31
0.0
  0
LINE
  5
1CE
330
55
100
AcDbEntity
  8
0
  6
Continuous
 62
     7
100
AcDbLine
 10
246.1686658709716
 20
900.0499994530037
 30
0.0
 11
246.1686658709716
 21
906.8999994530171
 31
0.0
  0
LINE
  5
1CF
330
55
100
AcDbEntity
  8
0
  6
Continuous
 62
     7
100
AcDbLine
 10
247.3686311879595
 20
938.4751274970336
 30
0.0
 11
247.8686311879586
 21
938.4751274970336
 31
0.0
  0
LINE
  5
1D0
330
55
100
AcDbEntity
  8
0
  6
Continuous
 62
     7
100
AcDbLine
 10
247.8686311879586
 20
938.9751263045987
 30
0.0
 11
247.3686311879595
 21
939.2638046894641
 31
0.0
  0
LINE
  5
1D1
330
55
100
AcDbEntity
  8
0
  6
Continuous
 62
     7
100
AcDbLine
 10
247.3686311879595
 20
940.9751274970334
 30
0.0
 11
247.8686311892287
 21
940.9751274970336
 31
0.0
  0
LINE
  5
1D2
330
55
100
AcDbEntity
  8
0
  6
Continuous
 62
     7
100
AcDbLine
 10
247.8686311892287
 20
941.4751263045979
 30
0.0
 11
247.3686311892296
 21
941.7638046894634
 31
0.0
  0
LINE
  5
1D3
330
55
100
AcDbEntity
  8
0
  6
Continuous
 62
     7
100
AcDbLine
 10
247.3686311892296
 20
943.4751274970328
 30
0.0
 11
247.8686311879585
 21
943.4751274970328
 31
0.0
  0
LINE
  5
1D4
330
55
100
AcDbEntity
  8
0
  6
Continuous
 62
     7
100
AcDbLine
 10
247.8686311879585
 20
943.9751263045965
 30
0.0
 11
247.3686311879594
 21
944.2638046894621
 31
0.0
  0
LINE
  5
1D5
330
55
100
AcDbEntity
  8
0
  6
Continuous
 62
     7
100
AcDbLine
 10
247.3686311879594
 20
945.9751274970328
 30
0.0
 11
247.8686311879585
 21
945.9751274970328
 31
0.0
  0
LINE
  5
1D6
330
55
100
AcDbEntity
  8
0
  6
Continuous
 62
     7
100
AcDbLine
 10
247.8686311879585
 20
946.4751263045965
 30
0.0
 11
247.3686311879593
 21
946.7638046894621
 31
0.0
  0
LINE
  5
1D7
330
55
100
AcDbEntity
  8
0
  6
Continuous
 62
     7
100
AcDbLine
 10
248.2686312169669
 20
948.4751274970328
 30
0.0
 11
247.3686311879593
 21
948.4751274970328
 31
0.0
  0
LINE
  5
1D8
330
55
100
AcDbEntity
  8
0
  6
Continuous
 62
     7
100
AcDbLine
 10
248.2686312169668
 20
952.2054724388267
 30
0.0
 11
245.5543830273629
 21
952.494277220796
 31
0.0
  0
LINE
  5
1D9
330
55
100
AcDbEntity
  8
0
  6
Continuous
 62
     7
100
AcDbLine
 10
240.7091797553788
 20
951.288537184729
 30
0.0
 11
239.1178306339001
 21
951.4213681070304
 31
0.0
  0
LINE
  5
1DA
330
55
100
AcDbEntity
  8
0
  6
Continuous
 62
     7
100
AcDbLine
 10
239.1178306339001
 20
951.4213681070304
 30
0.0
 11
239.2513339883206
 21
953.0207731392322
 31
0.0
  0
LINE
  5
1DB
330
55
100
AcDbEntity
  8
0
  6
Continuous
 62
     7
100
AcDbLine
 10
239.2513339883206
 20
953.0207731392322
 30
0.0
 11
232.4958644835023
 21
953.3619692651598
 31
0.0
  0
LINE
  5
1DC
330
55
100
AcDbEntity
  8
0
  6
Continuous
 62
     7
100
AcDbLine
 10
232.4958644835023
 20
953.3619692651598
 30
0.0
 11
225.768631215661
 21
953.4751404530678
 31
0.0
  0
LINE
  5
1DD
330
55
100
AcDbEntity
  8
0
  6
Continuous
 62
     7
100
AcDbLine
 10
225.768631215661
 20
953.4751404530678
 30
0.0
 11
219.0413978635226
 21
953.3619692637677
 31
0.0
  0
LINE
  5
1DE
330
55
100
AcDbEntity
  8
0
  6
Continuous
 62
     7
100
AcDbLine
 10
219.0413978635226
 20
953.3619692637677
 30
0.0
 11
212.2859283862649
 21
953.0207731392321
 31
0.0
  0
LINE
  5
1DF
330
55
100
AcDbEntity
  8
0
  6
Continuous
 62
     7
100
AcDbLine
 10
203.4034346412943
 20
926.22982379783
 30
0.0
 11
201.7199925220406
 21
941.3192114333015
 31
0.0
  0
ENDBLK
  5
57
330
55
100
AcDbEntity
  8
0
100
AcDbBlockEnd
  0
BLOCK
  5
5A
330
58
100
AcDbEntity
  8
0
100
AcDbBlockBegin
  2
Rckans2
 70
     0
 10
209.412421
 20
938.7625689999998
 30
0.0
  3
Rckans2
  1

  0
INSERT
  5
59
330
58
100
AcDbEntity
  8
0
100
AcDbBlockReference
  2
PT_IQ_1X2_24DC_P-select__3
 10
200.556210403489
 20
900.0499994530037
 30
0.0
  0
MTEXT
  5
1E0
330
58
100
AcDbEntity
  8
1
 62
     6
100
AcDbMText
 10
224.4124209878346
 20
895.0499996928512
 30
0.0
 40
5.0
 41
0.0
 71
     2
 72
     1
  1
 
  7
CONVERTER_11
 73
     1
 44
1.32052821128451
  0
ENDBLK
  5
5B
330
58
100
AcDbEntity
  8
0
100
AcDbBlockEnd
  0
BLOCK
  5
5D
330
5C
100
AcDbEntity
  8
0
100
AcDbBlockBegin
  2
PT_IQ_1X2_24DC_P-select__4
 70
     0
 10
156.8562112420154
 20
900.0499994530039
 30
0.0
  3
PT_IQ_1X2_24DC_P-select__4
  1

  0
LINE
  5
1E1
330
5C
100
AcDbEntity
  8
0
  6
Continuous
 62
     7
100
AcDbLine
 10
174.5562112465507
 20
952.2054724388342
 30
0.0
 11
174.5562112461488
 21
951.4213681071042
 31
0.0
  0
LINE
  5
1E2
330
5C
100
AcDbEntity
  8
0
  6
Continuous
 62
     7
100
AcDbLine
 10
156.8562112453962
 20
951.4213681070306
 30
0.0
 11
156.8562112462004
 21
952.205472438827
 31
0.0
  0
LINE
  5
1E3
330
5C
100
AcDbEntity
  8
0
  6
Continuous
 62
     7
100
AcDbLine
 10
174.556211246154
 20
953.0207731391614
 30
0.0
 11
174.5562112458569
 21
953.3619692651934
 31
0.0
  0
LINE
  5
1E4
330
5C
100
AcDbEntity
  8
0
  6
Continuous
 62
     7
100
AcDbLine
 10
174.5562112458569
 20
953.3619692651934
 30
0.0
 11
174.5562112455611
 21
953.4751404530758
 31
0.0
  0
LINE
  5
1E5
330
5C
100
AcDbEntity
  8
0
  6
Continuous
 62
     7
100
AcDbLine
 10
174.5562112464313
 20
952.4942772208034
 30
0.0
 11
156.8562112459617
 21
952.4942772207962
 31
0.0
  0
LINE
  5
1E6
330
5C
100
AcDbEntity
  8
0
  6
Continuous
 62
     7
100
AcDbLine
 10
174.556211246154
 20
953.0207731391614
 30
0.0
 11
174.5562112464313
 21
952.4942772208034
 31
0.0
  0
LINE
  5
1E7
330
5C
100
AcDbEntity
  8
0
  6
Continuous
 62
     7
100
AcDbLine
 10
174.5562112458569
 20
953.3619692651934
 30
0.0
 11
156.8562112448132
 21
953.36196926516
 31
0.0
  0
LINE
  5
1E8
330
5C
100
AcDbEntity
  8
0
  6
Continuous
 62
     7
100
AcDbLine
 10
174.5562112455611
 20
953.4751404530758
 30
0.0
 11
156.8562112442217
 21
953.475140453068
 31
0.0
  0
LINE
  5
1E9
330
5C
100
AcDbEntity
  8
0
  6
Continuous
 62
     7
100
AcDbLine
 10
156.8562112461239
 20
945.975127497033
 30
0.0
 11
174.5562112465137
 21
945.9751274970403
 31
0.0
  0
LINE
  5
1EA
330
5C
100
AcDbEntity
  8
0
  6
Continuous
 62
     7
100
AcDbLine
 10
156.8562112461719
 20
935.9751274970345
 30
0.0
 11
174.5562112465398
 21
935.9751274970417
 31
0.0
  0
LINE
  5
1EB
330
5C
100
AcDbEntity
  8
0
  6
Continuous
 62
     7
100
AcDbLine
 10
166.1062112167088
 20
906.8999994530157
 30
0.0
 11
165.3062112161691
 21
906.8999994530153
 31
0.0
  0
LINE
  5
1EC
330
5C
100
AcDbEntity
  8
0
  6
Continuous
 62
     7
100
AcDbLine
 10
174.5562112465185
 20
934.1868243285546
 30
0.0
 11
174.5562112444858
 21
934.3078811092346
 31
0.0
  0
LINE
  5
1ED
330
5C
100
AcDbEntity
  8
0
  6
Continuous
 62
     7
100
AcDbLine
 10
174.5562112444858
 20
934.3078811092346
 30
0.0
 11
174.5562112445077
 21
934.360145341001
 31
0.0
  0
LINE
  5
1EE
330
5C
100
AcDbEntity
  8
0
  6
Continuous
 62
     7
100
AcDbLine
 10
174.5562112465396
 20
936.4751263404328
 30
0.0
 11
174.5562112465398
 21
935.9751274970417
 31
0.0
  0
LINE
  5
1EF
330
5C
100
AcDbEntity
  8
0
  6
Continuous
 62
     7
100
AcDbLine
 10
174.5562112445077
 20
934.360145341001
 30
0.0
 11
174.5562112465398
 21
935.9751274970417
 31
0.0
  0
LINE
  5
1F0
330
5C
100
AcDbEntity
  8
0
  6
Continuous
 62
     7
100
AcDbLine
 10
174.5562112465692
 20
906.8999994530191
 30
0.0
 11
174.5562112465582
 21
934.0136163859491
 31
0.0
  0
LINE
  5
1F1
330
5C
100
AcDbEntity
  8
0
  6
Continuous
 62
     7
100
AcDbLine
 10
174.5562112465185
 20
934.1868243285546
 30
0.0
 11
156.8562112461287
 21
934.1868243285473
 31
0.0
  0
LINE
  5
1F2
330
5C
100
AcDbEntity
  8
0
  6
Continuous
 62
     7
100
AcDbLine
 10
156.8562112462079
 20
934.0136163857921
 30
0.0
 11
174.5562112465582
 21
934.0136163859491
 31
0.0
  0
LINE
  5
1F3
330
5C
100
AcDbEntity
  8
0
  6
Continuous
 62
     7
100
AcDbLine
 10
156.8562112459617
 20
952.4942772207962
 30
0.0
 11
156.8562112454073
 21
953.0207731392325
 31
0.0
  0
LINE
  5
1F4
330
5C
100
AcDbEntity
  8
0
  6
Continuous
 62
     7
100
AcDbLine
 10
156.8562112454073
 20
953.0207731392325
 30
0.0
 11
156.8562112448132
 21
953.36196926516
 31
0.0
  0
LINE
  5
1F5
330
5C
100
AcDbEntity
  8
0
  6
Continuous
 62
     7
100
AcDbLine
 10
156.8562112448132
 20
953.36196926516
 30
0.0
 11
156.8562112442217
 21
953.475140453068
 31
0.0
  0
LINE
  5
1F6
330
5C
100
AcDbEntity
  8
0
  6
Continuous
 62
     7
100
AcDbLine
 10
156.8562112461287
 20
934.1868243285473
 30
0.0
 11
156.8562112420633
 21
934.307881109268
 31
0.0
  0
LINE
  5
1F7
330
5C
100
AcDbEntity
  8
0
  6
Continuous
 62
     7
100
AcDbLine
 10
156.8562112461676
 20
946.4751263045968
 30
0.0
 11
156.8562112461239
 21
945.975127497033
 31
0.0
  0
LINE
  5
1F8
330
5C
100
AcDbEntity
  8
0
  6
Continuous
 62
     7
100
AcDbLine
 10
156.8562112461686
 20
943.9751263045968
 30
0.0
 11
156.8562112461246
 21
944.2638046894622
 31
0.0
  0
LINE
  5
1F9
330
5C
100
AcDbEntity
  8
0
  6
Continuous
 62
     7
100
AcDbLine
 10
156.8562112461686
 20
943.9751263045968
 30
0.0
 11
156.8562112461688
 21
943.475127497033
 31
0.0
  0
LINE
  5
1FA
330
5C
100
AcDbEntity
  8
0
  6
Continuous
 62
     7
100
AcDbLine
 10
156.8562112420633
 20
934.307881109268
 30
0.0
 11
156.856211242107
 21
934.3601453410345
 31
0.0
  0
LINE
  5
1FB
330
5C
100
AcDbEntity
  8
0
  6
Continuous
 62
     7
100
AcDbLine
 10
156.856211242107
 20
934.3601453410345
 30
0.0
 11
156.8562112461719
 21
935.9751274970345
 31
0.0
  0
LINE
  5
1FC
330
5C
100
AcDbEntity
  8
0
  6
Continuous
 62
     7
100
AcDbLine
 10
156.8562112462004
 20
952.205472438827
 30
0.0
 11
156.8562112459617
 21
952.4942772207962
 31
0.0
  0
LINE
  5
1FD
330
5C
100
AcDbEntity
  8
0
  6
Continuous
 62
     7
100
AcDbLine
 10
156.856211246202
 20
948.475127497033
 30
0.0
 11
156.8562112461235
 21
946.7638046894623
 31
0.0
  0
LINE
  5
1FE
330
5C
100
AcDbEntity
  8
0
  6
Continuous
 62
     7
100
AcDbLine
 10
156.8562112461239
 20
945.975127497033
 30
0.0
 11
156.8562112461246
 21
944.2638046894622
 31
0.0
  0
LINE
  5
1FF
330
5C
100
AcDbEntity
  8
0
  6
Continuous
 62
     7
100
AcDbLine
 10
156.8562112459506
 20
950.895245993878
 30
0.0
 11
156.856211246202
 21
948.475127497033
 31
0.0
  0
LINE
  5
200
330
5C
100
AcDbEntity
  8
0
  6
Continuous
 62
     7
100
AcDbLine
 10
156.8562112461676
 20
946.4751263045968
 30
0.0
 11
156.8562112461235
 21
946.7638046894623
 31
0.0
  0
LINE
  5
201
330
5C
100
AcDbEntity
  8
0
  6
Continuous
 62
     7
100
AcDbLine
 10
174.5562112465134
 20
946.7638046894696
 30
0.0
 11
174.5562112465355
 21
946.475126304604
 31
0.0
  0
LINE
  5
202
330
5C
100
AcDbEntity
  8
0
  6
Continuous
 62
     7
100
AcDbLine
 10
174.5562112465137
 20
945.9751274970403
 30
0.0
 11
174.5562112465144
 21
944.2638046894696
 31
0.0
  0
LINE
  5
203
330
5C
100
AcDbEntity
  8
0
  6
Continuous
 62
     7
100
AcDbLine
 10
174.5562112465355
 20
946.475126304604
 30
0.0
 11
174.5562112465137
 21
945.9751274970403
 31
0.0
  0
LINE
  5
204
330
5C
100
AcDbEntity
  8
0
  6
Continuous
 62
     7
100
AcDbLine
 10
174.5562112465522
 20
948.4751274970403
 30
0.0
 11
174.5562112465134
 21
946.7638046894696
 31
0.0
  0
LINE
  5
205
330
5C
100
AcDbEntity
  8
0
  6
Continuous
 62
     7
100
AcDbLine
 10
156.8562112459506
 20
950.895245993878
 30
0.0
 11
156.8562112458106
 21
951.0280769603742
 31
0.0
  0
LINE
  5
206
330
5C
100
AcDbEntity
  8
0
  6
Continuous
 62
     7
100
AcDbLine
 10
174.5562112463561
 20
951.0280769604468
 30
0.0
 11
174.5562112464261
 21
950.8952459939514
 31
0.0
  0
LINE
  5
207
330
5C
100
AcDbEntity
  8
0
  6
Continuous
 62
     7
100
AcDbLine
 10
174.5562112463561
 20
951.0280769604468
 30
0.0
 11
174.5562112461488
 21
951.4213681071042
 31
0.0
  0
LINE
  5
208
330
5C
100
AcDbEntity
  8
0
  6
Continuous
 62
     7
100
AcDbLine
 10
156.8562112453962
 20
951.4213681070306
 30
0.0
 11
156.8562112458106
 21
951.0280769603742
 31
0.0
  0
LINE
  5
209
330
5C
100
AcDbEntity
  8
0
  6
Continuous
 62
     7
100
AcDbLine
 10
174.5562112465507
 20
952.2054724388342
 30
0.0
 11
174.5562112464313
 21
952.4942772208034
 31
0.0
  0
LINE
  5
20A
330
5C
100
AcDbEntity
  8
0
  6
Continuous
 62
     7
100
AcDbLine
 10
156.8562112462004
 20
952.205472438827
 30
0.0
 11
174.5562112465507
 21
952.2054724388342
 31
0.0
  0
LINE
  5
20B
330
5C
100
AcDbEntity
  8
0
  6
Continuous
 62
     7
100
AcDbLine
 10
174.5562112465522
 20
948.4751274970403
 30
0.0
 11
156.856211246202
 21
948.475127497033
 31
0.0
  0
LINE
  5
20C
330
5C
100
AcDbEntity
  8
0
  6
Continuous
 62
     7
100
AcDbLine
 10
174.5562112464261
 20
950.8952459939514
 30
0.0
 11
174.5562112465522
 21
948.4751274970403
 31
0.0
  0
LINE
  5
20D
330
5C
100
AcDbEntity
  8
0
  6
Continuous
 62
     7
100
AcDbLine
 10
174.5562112465134
 20
946.7638046894696
 30
0.0
 11
156.8562112461235
 21
946.7638046894623
 31
0.0
  0
LINE
  5
20E
330
5C
100
AcDbEntity
  8
0
  6
Continuous
 62
     7
100
AcDbLine
 10
156.8562112461676
 20
946.4751263045968
 30
0.0
 11
174.5562112465355
 21
946.475126304604
 31
0.0
  0
LINE
  5
20F
330
5C
100
AcDbEntity
  8
0
  6
Continuous
 62
     7
100
AcDbLine
 10
166.1062112163376
 20
900.9676561553033
 30
0.0
 11
165.3062112161715
 21
900.9676561553031
 31
0.0
  0
LINE
  5
210
330
5C
100
AcDbEntity
  8
0
  6
Continuous
 62
     7
100
AcDbLine
 10
160.1062112356133
 20
906.8999994530132
 30
0.0
 11
156.856211246219
 21
906.8999994530118
 31
0.0
  0
LINE
  5
211
330
5C
100
AcDbEntity
  8
0
  6
Continuous
 62
     7
100
AcDbLine
 10
165.3062112161715
 20
900.9676561553031
 30
0.0
 11
165.3062112161691
 21
906.8999994530153
 31
0.0
  0
LINE
  5
212
330
5C
100
AcDbEntity
  8
0
  6
Continuous
 62
     7
100
AcDbLine
 10
165.3062112161691
 20
906.8999994530153
 30
0.0
 11
160.9062112357794
 21
906.8999994530135
 31
0.0
  0
LINE
  5
213
330
5C
100
AcDbEntity
  8
0
  6
Continuous
 62
     7
100
AcDbLine
 10
174.5562112465144
 20
944.2638046894696
 30
0.0
 11
156.8562112461246
 21
944.2638046894622
 31
0.0
  0
LINE
  5
214
330
5C
100
AcDbEntity
  8
0
  6
Continuous
 62
     7
100
AcDbLine
 10
174.5562112465144
 20
944.2638046894696
 30
0.0
 11
174.5562112465365
 21
943.975126304604
 31
0.0
  0
LINE
  5
215
330
5C
100
AcDbEntity
  8
0
  6
Continuous
 62
     7
100
AcDbLine
 10
156.8562112461688
 20
943.475127497033
 30
0.0
 11
156.8562112421636
 21
943.0406035606861
 31
0.0
  0
LINE
  5
216
330
5C
100
AcDbEntity
  8
0
  6
Continuous
 62
     7
100
AcDbLine
 10
156.8562112461256
 20
941.7638046894637
 30
0.0
 11
156.8562112421636
 21
943.0406035606861
 31
0.0
  0
LINE
  5
217
330
5C
100
AcDbEntity
  8
0
  6
Continuous
 62
     7
100
AcDbLine
 10
174.5562112465367
 20
943.4751274970403
 30
0.0
 11
174.5562112445342
 21
943.0406035605986
 31
0.0
  0
LINE
  5
218
330
5C
100
AcDbEntity
  8
0
  6
Continuous
 62
     7
100
AcDbLine
 10
156.8562112461686
 20
943.9751263045968
 30
0.0
 11
174.5562112465365
 21
943.975126304604
 31
0.0
  0
LINE
  5
219
330
5C
100
AcDbEntity
  8
0
  6
Continuous
 62
     7
100
AcDbLine
 10
174.5562112465365
 20
943.975126304604
 30
0.0
 11
174.5562112465367
 21
943.4751274970403
 31
0.0
  0
LINE
  5
21A
330
5C
100
AcDbEntity
  8
0
  6
Continuous
 62
     7
100
AcDbLine
 10
156.8562112461696
 20
941.4751263045981
 30
0.0
 11
174.5562112465375
 21
941.4751263046054
 31
0.0
  0
LINE
  5
21B
330
5C
100
AcDbEntity
  8
0
  6
Continuous
 62
     7
100
AcDbLine
 10
156.8562112421818
 20
941.4164371307016
 30
0.0
 11
156.8562112461696
 21
941.4751263045981
 31
0.0
  0
LINE
  5
21C
330
5C
100
AcDbEntity
  8
0
  6
Continuous
 62
     7
100
AcDbLine
 10
156.8562112421122
 20
941.3192114333017
 30
0.0
 11
156.8562112421818
 21
941.4164371307016
 31
0.0
  0
LINE
  5
21D
330
5C
100
AcDbEntity
  8
0
  6
Continuous
 62
     7
100
AcDbLine
 10
156.8562112461696
 20
941.4751263045981
 30
0.0
 11
156.8562112461256
 21
941.7638046894637
 31
0.0
  0
LINE
  5
21E
330
5C
100
AcDbEntity
  8
0
  6
Continuous
 62
     7
100
AcDbLine
 10
174.5562112465154
 20
941.7638046894708
 30
0.0
 11
156.8562112461256
 21
941.7638046894637
 31
0.0
  0
LINE
  5
21F
330
5C
100
AcDbEntity
  8
0
  6
Continuous
 62
     7
100
AcDbLine
 10
174.5562112445436
 20
941.416437130641
 30
0.0
 11
174.5562112465375
 21
941.4751263046054
 31
0.0
  0
LINE
  5
220
330
5C
100
AcDbEntity
  8
0
  6
Continuous
 62
     7
100
AcDbLine
 10
174.5562112465375
 20
941.4751263046054
 30
0.0
 11
174.5562112465154
 21
941.7638046894708
 31
0.0
  0
LINE
  5
221
330
5C
100
AcDbEntity
  8
0
  6
Continuous
 62
     7
100
AcDbLine
 10
174.5562112465154
 20
941.7638046894708
 30
0.0
 11
174.5562112445342
 21
943.0406035605986
 31
0.0
  0
LINE
  5
222
330
5C
100
AcDbEntity
  8
0
  6
Continuous
 62
     7
100
AcDbLine
 10
156.8562112461699
 20
940.9751274970338
 30
0.0
 11
156.8562112421122
 21
941.3192114333017
 31
0.0
  0
LINE
  5
223
330
5C
100
AcDbEntity
  8
0
  6
Continuous
 62
     7
100
AcDbLine
 10
156.8562112420154
 20
939.2804905862414
 30
0.0
 11
156.856211242059
 21
939.3327548178752
 31
0.0
  0
LINE
  5
224
330
5C
100
AcDbEntity
  8
0
  6
Continuous
 62
     7
100
AcDbLine
 10
156.856211242059
 20
939.3327548178752
 30
0.0
 11
156.8562112461699
 21
940.9751274970338
 31
0.0
  0
LINE
  5
225
330
5C
100
AcDbEntity
  8
0
  6
Continuous
 62
     7
100
AcDbLine
 10
174.5562112465377
 20
940.975127497041
 30
0.0
 11
174.5562112445088
 21
941.3192114332417
 31
0.0
  0
LINE
  5
226
330
5C
100
AcDbEntity
  8
0
  6
Continuous
 62
     7
100
AcDbLine
 10
174.5562112444827
 20
939.3327548178416
 30
0.0
 11
174.5562112465377
 21
940.975127497041
 31
0.0
  0
LINE
  5
227
330
5C
100
AcDbEntity
  8
0
  6
Continuous
 62
     7
100
AcDbLine
 10
174.5562112445088
 20
941.3192114332417
 30
0.0
 11
174.5562112445436
 21
941.416437130641
 31
0.0
  0
LINE
  5
228
330
5C
100
AcDbEntity
  8
0
  6
Continuous
 62
     7
100
AcDbLine
 10
174.5562112444608
 20
939.280490586208
 30
0.0
 11
174.5562112444827
 21
939.3327548178416
 31
0.0
  0
LINE
  5
229
330
5C
100
AcDbEntity
  8
0
  6
Continuous
 62
     7
100
AcDbLine
 10
174.5562112465175
 20
936.7638046894716
 30
0.0
 11
156.8562112461276
 21
936.7638046894645
 31
0.0
  0
LINE
  5
22A
330
5C
100
AcDbEntity
  8
0
  6
Continuous
 62
     7
100
AcDbLine
 10
156.8562112461709
 20
938.4751274970338
 30
0.0
 11
174.5562112465387
 21
938.4751274970411
 31
0.0
  0
LINE
  5
22B
330
5C
100
AcDbEntity
  8
0
  6
Continuous
 62
     7
100
AcDbLine
 10
156.8562112461707
 20
938.9751263045989
 30
0.0
 11
174.5562112465385
 21
938.9751263046062
 31
0.0
  0
LINE
  5
22C
330
5C
100
AcDbEntity
  8
0
  6
Continuous
 62
     7
100
AcDbLine
 10
174.5562112465165
 20
939.2638046894716
 30
0.0
 11
156.8562112461266
 21
939.2638046894645
 31
0.0
  0
LINE
  5
22D
330
5C
100
AcDbEntity
  8
0
  6
Continuous
 62
     7
100
AcDbLine
 10
156.8562112461709
 20
938.4751274970338
 30
0.0
 11
156.8562112461707
 21
938.9751263045989
 31
0.0
  0
LINE
  5
22E
330
5C
100
AcDbEntity
  8
0
  6
Continuous
 62
     7
100
AcDbLine
 10
156.8562112461707
 20
938.9751263045989
 30
0.0
 11
156.8562112461266
 21
939.2638046894645
 31
0.0
  0
LINE
  5
22F
330
5C
100
AcDbEntity
  8
0
  6
Continuous
 62
     7
100
AcDbLine
 10
156.8562112461266
 20
939.2638046894645
 30
0.0
 11
156.8562112420154
 21
939.2804905862414
 31
0.0
  0
LINE
  5
230
330
5C
100
AcDbEntity
  8
0
  6
Continuous
 62
     7
100
AcDbLine
 10
156.8562112461276
 20
936.7638046894645
 30
0.0
 11
156.8562112461709
 21
938.4751274970338
 31
0.0
  0
LINE
  5
231
330
5C
100
AcDbEntity
  8
0
  6
Continuous
 62
     7
100
AcDbLine
 10
156.8562112461717
 20
936.4751263404254
 30
0.0
 11
156.8562112461276
 21
936.7638046894645
 31
0.0
  0
LINE
  5
232
330
5C
100
AcDbEntity
  8
0
  6
Continuous
 62
     7
100
AcDbLine
 10
174.5562112465387
 20
938.4751274970411
 30
0.0
 11
174.5562112465385
 21
938.9751263046062
 31
0.0
  0
LINE
  5
233
330
5C
100
AcDbEntity
  8
0
  6
Continuous
 62
     7
100
AcDbLine
 10
174.5562112465165
 20
939.2638046894716
 30
0.0
 11
174.5562112444608
 21
939.280490586208
 31
0.0
  0
LINE
  5
234
330
5C
100
AcDbEntity
  8
0
  6
Continuous
 62
     7
100
AcDbLine
 10
174.5562112465385
 20
938.9751263046062
 30
0.0
 11
174.5562112465165
 21
939.2638046894716
 31
0.0
  0
LINE
  5
235
330
5C
100
AcDbEntity
  8
0
  6
Continuous
 62
     7
100
AcDbLine
 10
174.5562112465175
 20
936.7638046894716
 30
0.0
 11
174.5562112465387
 21
938.4751274970411
 31
0.0
  0
LINE
  5
236
330
5C
100
AcDbEntity
  8
0
  6
Continuous
 62
     7
100
AcDbLine
 10
174.5562112465396
 20
936.4751263404328
 30
0.0
 11
174.5562112465175
 21
936.7638046894716
 31
0.0
  0
LINE
  5
237
330
5C
100
AcDbEntity
  8
0
  6
Continuous
 62
     7
100
AcDbLine
 10
156.8562112461717
 20
936.4751263404254
 30
0.0
 11
174.5562112465396
 21
936.4751263404328
 31
0.0
  0
LINE
  5
238
330
5C
100
AcDbEntity
  8
0
  6
Continuous
 62
     7
100
AcDbLine
 10
156.8562112461688
 20
943.475127497033
 30
0.0
 11
174.5562112465367
 21
943.4751274970403
 31
0.0
  0
LINE
  5
239
330
5C
100
AcDbEntity
  8
0
  6
Continuous
 62
     7
100
AcDbLine
 10
156.8562112461699
 20
940.9751274970338
 30
0.0
 11
174.5562112465377
 21
940.975127497041
 31
0.0
  0
LINE
  5
23A
330
5C
100
AcDbEntity
  8
0
  6
Continuous
 62
     7
100
AcDbLine
 10
170.5062112351966
 20
906.8999994530175
 30
0.0
 11
166.1062112167088
 21
906.8999994530157
 31
0.0
  0
LINE
  5
23B
330
5C
100
AcDbEntity
  8
0
  6
Continuous
 62
     7
100
AcDbLine
 10
166.1062112163376
 20
900.9676561553033
 30
0.0
 11
166.1062112167088
 21
906.8999994530157
 31
0.0
  0
LINE
  5
23C
330
5C
100
AcDbEntity
  8
0
  6
Continuous
 62
     7
100
AcDbLine
 10
171.3062112353655
 20
900.0499994530043
 30
0.0
 11
170.5062112351995
 21
900.0499994530039
 31
0.0
  0
LINE
  5
23D
330
5C
100
AcDbEntity
  8
0
  6
Continuous
 62
     7
100
AcDbLine
 10
174.5562112465582
 20
934.0136163859491
 30
0.0
 11
174.5562112465185
 21
934.1868243285546
 31
0.0
  0
LINE
  5
23E
330
5C
100
AcDbEntity
  8
0
  6
Continuous
 62
     7
100
AcDbLine
 10
174.5562112465692
 20
906.8999994530191
 30
0.0
 11
171.3062112353628
 21
906.8999994530177
 31
0.0
  0
LINE
  5
23F
330
5C
100
AcDbEntity
  8
0
  6
Continuous
 62
     7
100
AcDbLine
 10
171.3062112353628
 20
906.8999994530177
 30
0.0
 11
170.5062112351966
 21
906.8999994530175
 31
0.0
  0
LINE
  5
240
330
5C
100
AcDbEntity
  8
0
  6
Continuous
 62
     7
100
AcDbLine
 10
171.3062112353655
 20
900.0499994530043
 30
0.0
 11
171.3062112353628
 21
906.8999994530177
 31
0.0
  0
LINE
  5
241
330
5C
100
AcDbEntity
  8
0
  6
Continuous
 62
     7
100
AcDbLine
 10
170.5062112351995
 20
900.0499994530039
 30
0.0
 11
170.5062112351966
 21
906.8999994530175
 31
0.0
  0
LINE
  5
242
330
5C
100
AcDbEntity
  8
0
  6
Continuous
 62
     7
100
AcDbLine
 10
160.9062112357822
 20
900.0499994530072
 30
0.0
 11
160.9062112357794
 21
906.8999994530135
 31
0.0
  0
LINE
  5
243
330
5C
100
AcDbEntity
  8
0
  6
Continuous
 62
     7
100
AcDbLine
 10
160.9062112357794
 20
906.8999994530135
 30
0.0
 11
160.1062112356133
 21
906.8999994530132
 31
0.0
  0
LINE
  5
244
330
5C
100
AcDbEntity
  8
0
  6
Continuous
 62
     7
100
AcDbLine
 10
160.9062112357822
 20
900.0499994530072
 30
0.0
 11
160.1062112356161
 21
900.0499994530069
 31
0.0
  0
LINE
  5
245
330
5C
100
AcDbEntity
  8
0
  6
Continuous
 62
     7
100
AcDbLine
 10
156.856211246219
 20
906.8999994530118
 30
0.0
 11
156.8562112462079
 21
934.0136163857921
 31
0.0
  0
LINE
  5
246
330
5C
100
AcDbEntity
  8
0
  6
Continuous
 62
     7
100
AcDbLine
 10
156.8562112462079
 20
934.0136163857921
 30
0.0
 11
156.8562112461287
 21
934.1868243285473
 31
0.0
  0
LINE
  5
247
330
5C
100
AcDbEntity
  8
0
  6
Continuous
 62
     7
100
AcDbLine
 10
156.8562112461717
 20
936.4751263404254
 30
0.0
 11
156.8562112461719
 21
935.9751274970345
 31
0.0
  0
LINE
  5
248
330
5C
100
AcDbEntity
  8
0
  6
Continuous
 62
     7
100
AcDbLine
 10
160.1062112356161
 20
900.0499994530069
 30
0.0
 11
160.1062112356133
 21
906.8999994530132
 31
0.0
  0
LINE
  5
249
330
5C
100
AcDbEntity
  8
0
  6
Continuous
 62
     7
100
AcDbLine
 10
174.556211246154
 20
953.0207731391614
 30
0.0
 11
156.8562112454073
 21
953.0207731392325
 31
0.0
  0
ENDBLK
  5
5E
330
5C
100
AcDbEntity
  8
0
100
AcDbBlockEnd
  0
BLOCK
  5
61
330
5F
100
AcDbEntity
  8
0
100
AcDbBlockBegin
  2
SA_Links2
 70
     0
 10
156.9062110000002
 20
938.762569
 30
0.0
  3
SA_Links2
  1

  0
INSERT
  5
60
330
5F
100
AcDbEntity
  8
0
100
AcDbBlockReference
  2
PT_IQ_1X2_24DC_P-select__4
 10
156.8562112420154
 20
900.0499994530039
 30
0.0
  0
MTEXT
  5
24A
330
5F
100
AcDbEntity
  8
1
 62
     6
100
AcDbMText
 10
165.7062105656024
 20
895.0499996928512
 30
0.0
 40
5.0
 41
0.0
 71
     2
 72
     1
  1
 
  7
CONVERTER_11
 73
     1
 44
1.32052821128451
  0
ENDBLK
  5
62
330
5F
100
AcDbEntity
  8
0
100
AcDbBlockEnd
  0
BLOCK
  5
64
330
63
100
AcDbEntity
  8
0
100
AcDbBlockBegin
  2
PT_IQ_1X2_24DC_P-select__5
 70
     0
 10
-0.5562112455614
 20
900.0499994530039
 30
0.0
  3
PT_IQ_1X2_24DC_P-select__5
  1

  0
LINE
  5
24B
330
63
100
AcDbEntity
  8
0
  6
Continuous
 62
     7
100
AcDbLine
 10
17.14378875780128
 20
923.9657642437471
 30
0.0
 11
17.1437887577419
 21
918.4167474406171
 31
0.0
  0
LINE
  5
24C
330
63
100
AcDbEntity
  8
0
  6
Continuous
 62
     7
100
AcDbLine
 10
-0.55621124458662
 20
918.416747401473
 30
0.0
 11
17.1437887577419
 21
918.4167474406171
 31
0.0
  0
LINE
  5
24D
330
63
100
AcDbEntity
  8
0
  6
Continuous
 62
     7
100
AcDbLine
 10
-0.5562112445038
 20
924.9290652997054
 30
0.0
 11
17.1437887579049
 21
924.9290653005353
 31
0.0
  0
LINE
  5
24E
330
63
100
AcDbEntity
  8
0
  6
Continuous
 62
     7
100
AcDbLine
 10
8.6937887838306
 20
906.8999994530152
 30
0.0
 11
8.6937887838281
 21
900.967656155303
 31
0.0
  0
LINE
  5
24F
330
63
100
AcDbEntity
  8
0
  6
Continuous
 62
     7
100
AcDbLine
 10
7.89378878366207
 20
900.9676561553033
 30
0.0
 11
8.6937887838281
 21
900.967656155303
 31
0.0
  0
LINE
  5
250
330
63
100
AcDbEntity
  8
0
  6
Continuous
 62
     7
100
AcDbLine
 10
7.89378878366449
 20
906.8999994530155
 30
0.0
 11
7.89378878366207
 21
900.9676561553033
 31
0.0
  0
LINE
  5
251
330
63
100
AcDbEntity
  8
0
  6
Continuous
 62
     7
100
AcDbLine
 10
2.69378876463409
 20
900.0499994530041
 30
0.0
 11
3.4937887648002
 21
900.0499994530039
 31
0.0
  0
LINE
  5
252
330
63
100
AcDbEntity
  8
0
  6
Continuous
 62
     7
100
AcDbLine
 10
2.69378876463688
 20
906.8999994530177
 30
0.0
 11
2.69378876463409
 21
900.0499994530041
 31
0.0
  0
LINE
  5
253
330
63
100
AcDbEntity
  8
0
  6
Continuous
 62
     7
100
AcDbLine
 10
3.49378876480299
 20
906.8999994530174
 30
0.0
 11
3.4937887648002
 21
900.0499994530039
 31
0.0
  0
LINE
  5
254
330
63
100
AcDbEntity
  8
0
  6
Continuous
 62
     7
100
AcDbLine
 10
13.09378876422028
 20
906.8999994530135
 30
0.0
 11
13.09378876421749
 21
900.0499994530071
 31
0.0
  0
LINE
  5
255
330
63
100
AcDbEntity
  8
0
  6
Continuous
 62
     7
100
AcDbLine
 10
13.09378876422028
 20
906.8999994530135
 30
0.0
 11
13.8937887643863
 21
906.8999994530132
 31
0.0
  0
LINE
  5
256
330
63
100
AcDbEntity
  8
0
  6
Continuous
 62
     7
100
AcDbLine
 10
13.8937887643863
 20
906.8999994530132
 30
0.0
 11
17.14378875773718
 21
906.8999994530118
 31
0.0
  0
LINE
  5
257
330
63
100
AcDbEntity
  8
0
  6
Continuous
 62
     7
100
AcDbLine
 10
7.89378878366449
 20
906.8999994530155
 30
0.0
 11
8.6937887838306
 21
906.8999994530152
 31
0.0
  0
LINE
  5
258
330
63
100
AcDbEntity
  8
0
  6
Continuous
 62
     7
100
AcDbLine
 10
3.49378876480299
 20
906.8999994530174
 30
0.0
 11
7.89378878366449
 21
906.8999994530155
 31
0.0
  0
LINE
  5
259
330
63
100
AcDbEntity
  8
0
  6
Continuous
 62
     7
100
AcDbLine
 10
-0.55621124459131
 20
906.8999994530191
 30
0.0
 11
2.69378876463688
 21
906.8999994530177
 31
0.0
  0
LINE
  5
25A
330
63
100
AcDbEntity
  8
0
  6
Continuous
 62
     7
100
AcDbLine
 10
2.69378876463688
 20
906.8999994530177
 30
0.0
 11
3.49378876480299
 21
906.8999994530174
 31
0.0
  0
LINE
  5
25B
330
63
100
AcDbEntity
  8
0
  6
Continuous
 62
     7
100
AcDbLine
 10
8.6937887838306
 20
906.8999994530152
 30
0.0
 11
13.09378876422028
 21
906.8999994530135
 31
0.0
  0
LINE
  5
25C
330
63
100
AcDbEntity
  8
0
  6
Continuous
 62
     7
100
AcDbLine
 10
17.14378875577799
 20
953.475140453068
 30
0.0
 11
17.14378875636939
 21
953.361969263768
 31
0.0
  0
LINE
  5
25D
330
63
100
AcDbEntity
  8
0
  6
Continuous
 62
     7
100
AcDbLine
 10
15.39378875547669
 20
952.5478689318536
 30
0.0
 11
15.39378875547689
 21
952.9160498350926
 31
0.0
  0
LINE
  5
25E
330
63
100
AcDbEntity
  8
0
  6
Continuous
 62
     7
100
AcDbLine
 10
17.14378875696318
 20
953.0207731392323
 30
0.0
 11
17.14378875750319
 21
952.5075668437715
 31
0.0
  0
LINE
  5
25F
330
63
100
AcDbEntity
  8
0
  6
Continuous
 62
     7
100
AcDbLine
 10
17.14378875636939
 20
953.361969263768
 30
0.0
 11
17.14378875696318
 21
953.0207731392323
 31
0.0
  0
LINE
  5
260
330
63
100
AcDbEntity
  8
0
  6
Continuous
 62
     7
100
AcDbLine
 10
13.09378876421749
 20
900.0499994530071
 30
0.0
 11
13.8937887643836
 21
900.0499994530068
 31
0.0
  0
LINE
  5
261
330
63
100
AcDbEntity
  8
0
  6
Continuous
 62
     7
100
AcDbLine
 10
17.14378875773718
 20
906.8999994530118
 30
0.0
 11
17.1437887577419
 21
918.4167474406171
 31
0.0
  0
LINE
  5
262
330
63
100
AcDbEntity
  8
0
  6
Continuous
 62
     7
100
AcDbLine
 10
13.8937887643863
 20
906.8999994530132
 30
0.0
 11
13.8937887643836
 21
900.0499994530068
 31
0.0
  0
LINE
  5
263
330
63
100
AcDbEntity
  8
0
  6
Continuous
 62
     7
100
AcDbLine
 10
-0.5562112455614
 20
953.4751404530758
 30
0.0
 11
-0.5562112452657
 21
953.3619692637751
 31
0.0
  0
LINE
  5
264
330
63
100
AcDbEntity
  8
0
  6
Continuous
 62
     7
100
AcDbLine
 10
-0.55621124459131
 20
906.8999994530191
 30
0.0
 11
-0.55621124458662
 21
918.416747401473
 31
0.0
  0
LINE
  5
265
330
63
100
AcDbEntity
  8
0
  6
Continuous
 62
     7
100
AcDbLine
 10
-0.55621124496892
 20
953.0207731392396
 30
0.0
 11
-0.556211244699
 21
952.5075668437788
 31
0.0
  0
LINE
  5
266
330
63
100
AcDbEntity
  8
0
  6
Continuous
 62
     7
100
AcDbLine
 10
-0.55621124455581
 20
923.9657642436547
 30
0.0
 11
17.14378875780128
 21
923.9657642437471
 31
0.0
  0
LINE
  5
267
330
63
100
AcDbEntity
  8
0
  6
Continuous
 62
     7
100
AcDbLine
 10
17.14378875791519
 20
925.645813899355
 30
0.0
 11
-0.55621124449851
 21
925.6458138993621
 31
0.0
  0
LINE
  5
268
330
63
100
AcDbEntity
  8
0
  6
Continuous
 62
     7
100
AcDbLine
 10
-0.5562112444712
 20
937.2914456095674
 30
0.0
 11
17.1437887579651
 21
937.2914456096009
 31
0.0
  0
LINE
  5
269
330
63
100
AcDbEntity
  8
0
  6
Continuous
 62
     7
100
AcDbLine
 10
1.19378875615558
 20
952.9160498352019
 30
0.0
 11
1.1937887561555
 21
952.5478689319133
 31
0.0
  0
LINE
  5
26A
330
63
100
AcDbEntity
  8
0
  6
Continuous
 62
     7
100
AcDbLine
 10
1.1937887561555
 20
952.5478689319133
 30
0.0
 11
1.1937887561555
 21
952.533143379599
 31
0.0
  0
LINE
  5
26B
330
63
100
AcDbEntity
  8
0
  6
Continuous
 62
     7
100
AcDbLine
 10
-0.55621124455581
 20
923.9657642436547
 30
0.0
 11
-0.55621124458662
 21
918.416747401473
 31
0.0
  0
LINE
  5
26C
330
63
100
AcDbEntity
  8
0
  6
Continuous
 62
     7
100
AcDbLine
 10
17.14378875750319
 20
952.5075668437715
 30
0.0
 11
-0.556211244699
 21
952.5075668437788
 31
0.0
  0
LINE
  5
26D
330
63
100
AcDbEntity
  8
0
  6
Continuous
 62
     7
100
AcDbLine
 10
17.14378875775228
 20
943.9251274970193
 30
0.0
 11
17.14378875775569
 21
952.2054853864114
 31
0.0
  0
LINE
  5
26E
330
63
100
AcDbEntity
  8
0
  6
Continuous
 62
     7
100
AcDbLine
 10
17.14378875750319
 20
952.5075668437715
 30
0.0
 11
17.14378875775569
 21
952.2054853864114
 31
0.0
  0
LINE
  5
26F
330
63
100
AcDbEntity
  8
0
  6
Continuous
 62
     7
100
AcDbLine
 10
-0.55621124457622
 20
943.9251274970264
 30
0.0
 11
17.14378875775228
 21
943.9251274970193
 31
0.0
  0
LINE
  5
270
330
63
100
AcDbEntity
  8
0
  6
Continuous
 62
     7
100
AcDbLine
 10
17.14378875783598
 20
943.040603560686
 30
0.0
 11
17.14378875797559
 21
942.8456126111446
 31
0.0
  0
LINE
  5
271
330
63
100
AcDbEntity
  8
0
  6
Continuous
 62
     7
100
AcDbLine
 10
17.14378875775228
 20
943.9251274970193
 30
0.0
 11
17.14378875783598
 21
943.040603560686
 31
0.0
  0
LINE
  5
272
330
63
100
AcDbEntity
  8
0
  6
Continuous
 62
     7
100
AcDbLine
 10
17.1437887579678
 20
942.1565219003573
 30
0.0
 11
17.14378875797559
 21
942.8456126111446
 31
0.0
  0
LINE
  5
273
330
63
100
AcDbEntity
  8
0
  6
Continuous
 62
     7
100
AcDbLine
 10
17.14378875794819
 20
940.1171115541237
 30
0.0
 11
-0.5562112444791
 21
940.1171115540901
 31
0.0
  0
LINE
  5
274
330
63
100
AcDbEntity
  8
0
  6
Continuous
 62
     7
100
AcDbLine
 10
17.14378875794819
 20
940.1171115541237
 30
0.0
 11
17.14378875798909
 21
939.7777503480216
 31
0.0
  0
LINE
  5
275
330
63
100
AcDbEntity
  8
0
  6
Continuous
 62
     7
100
AcDbLine
 10
17.14378875798909
 20
939.7777503480216
 30
0.0
 11
17.14378875798428
 21
939.2804905862414
 31
0.0
  0
LINE
  5
276
330
63
100
AcDbEntity
  8
0
  6
Continuous
 62
     7
100
AcDbLine
 10
17.1437887579678
 20
942.1565219003573
 30
0.0
 11
17.14378875794819
 21
940.1171115541237
 31
0.0
  0
LINE
  5
277
330
63
100
AcDbEntity
  8
0
  6
Continuous
 62
     7
100
AcDbLine
 10
-0.55621124446481
 20
942.8456126111519
 30
0.0
 11
17.14378875797559
 21
942.8456126111446
 31
0.0
  0
LINE
  5
278
330
63
100
AcDbEntity
  8
0
  6
Continuous
 62
     7
100
AcDbLine
 10
17.1437887579242
 20
937.630806815703
 30
0.0
 11
17.1437887579651
 21
937.2914456096009
 31
0.0
  0
LINE
  5
279
330
63
100
AcDbEntity
  8
0
  6
Continuous
 62
     7
100
AcDbLine
 10
17.14378875798428
 20
939.2804905862414
 30
0.0
 11
17.1437887579242
 21
937.630806815703
 31
0.0
  0
LINE
  5
27A
330
63
100
AcDbEntity
  8
0
  6
Continuous
 62
     7
100
AcDbLine
 10
-0.55621124445861
 20
939.7777503479881
 30
0.0
 11
17.14378875798909
 21
939.7777503480216
 31
0.0
  0
LINE
  5
27B
330
63
100
AcDbEntity
  8
0
  6
Continuous
 62
     7
100
AcDbLine
 10
17.14378875791658
 20
936.8464500793216
 30
0.0
 11
17.14378875796029
 21
936.7941858478207
 31
0.0
  0
LINE
  5
27C
330
63
100
AcDbEntity
  8
0
  6
Continuous
 62
     7
100
AcDbLine
 10
17.1437887579651
 20
937.2914456096009
 30
0.0
 11
17.14378875791658
 21
936.8464500793216
 31
0.0
  0
LINE
  5
27D
330
63
100
AcDbEntity
  8
0
  6
Continuous
 62
     7
100
AcDbLine
 10
17.14378875796029
 20
936.7941858478207
 30
0.0
 11
17.14378875790018
 21
935.1445020771536
 31
0.0
  0
LINE
  5
27E
330
63
100
AcDbEntity
  8
0
  6
Continuous
 62
     7
100
AcDbLine
 10
17.14378875794108
 20
934.8051408710515
 30
0.0
 11
17.14378875793628
 21
934.307881109268
 31
0.0
  0
LINE
  5
27F
330
63
100
AcDbEntity
  8
0
  6
Continuous
 62
     7
100
AcDbLine
 10
17.14378875790018
 20
935.1445020771536
 30
0.0
 11
17.14378875794108
 21
934.8051408710515
 31
0.0
  0
LINE
  5
280
330
63
100
AcDbEntity
  8
0
  6
Continuous
 62
     7
100
AcDbLine
 10
17.14378875787619
 20
932.6581973388663
 30
0.0
 11
17.14378875791709
 21
932.3188361327643
 31
0.0
  0
LINE
  5
281
330
63
100
AcDbEntity
  8
0
  6
Continuous
 62
     7
100
AcDbLine
 10
17.14378875793628
 20
934.307881109268
 30
0.0
 11
17.14378875787619
 21
932.6581973388663
 31
0.0
  0
LINE
  5
282
330
63
100
AcDbEntity
  8
0
  6
Continuous
 62
     7
100
AcDbLine
 10
17.14378875793628
 20
934.307881109268
 30
0.0
 11
-0.55621124448621
 21
934.3078811092345
 31
0.0
  0
LINE
  5
283
330
63
100
AcDbEntity
  8
0
  6
Continuous
 62
     7
100
AcDbLine
 10
17.14378875791229
 20
931.82157637098
 30
0.0
 11
17.14378875786858
 21
931.8738406026138
 31
0.0
  0
LINE
  5
284
330
63
100
AcDbEntity
  8
0
  6
Continuous
 62
     7
100
AcDbLine
 10
17.14378875791709
 20
932.3188361327643
 30
0.0
 11
17.14378875786858
 21
931.8738406026138
 31
0.0
  0
LINE
  5
285
330
63
100
AcDbEntity
  8
0
  6
Continuous
 62
     7
100
AcDbLine
 10
17.14378875785218
 20
930.1718926004519
 30
0.0
 11
17.14378875791229
 21
931.82157637098
 31
0.0
  0
LINE
  5
286
330
63
100
AcDbEntity
  8
0
  6
Continuous
 62
     7
100
AcDbLine
 10
17.14378875787619
 20
932.6581973388663
 30
0.0
 11
-0.55621124451662
 21
932.6581973388329
 31
0.0
  0
LINE
  5
287
330
63
100
AcDbEntity
  8
0
  6
Continuous
 62
     7
100
AcDbLine
 10
17.14378875789308
 20
929.8325313943434
 30
0.0
 11
17.1437887578883
 21
929.3352716325592
 31
0.0
  0
LINE
  5
288
330
63
100
AcDbEntity
  8
0
  6
Continuous
 62
     7
100
AcDbLine
 10
17.14378875785218
 20
930.1718926004519
 30
0.0
 11
17.14378875789308
 21
929.8325313943434
 31
0.0
  0
LINE
  5
289
330
63
100
AcDbEntity
  8
0
  6
Continuous
 62
     7
100
AcDbLine
 10
17.1437887578883
 20
929.3352716325592
 30
0.0
 11
17.14378875781
 21
925.7929011502267
 31
0.0
  0
LINE
  5
28A
330
63
100
AcDbEntity
  8
0
  6
Continuous
 62
     7
100
AcDbLine
 10
-0.55621124451122
 20
929.3352716325256
 30
0.0
 11
17.1437887578883
 21
929.3352716325592
 31
0.0
  0
LINE
  5
28B
330
63
100
AcDbEntity
  8
0
  6
Continuous
 62
     7
100
AcDbLine
 10
17.14378875791519
 20
925.645813899355
 30
0.0
 11
17.1437887579049
 21
924.9290653005353
 31
0.0
  0
LINE
  5
28C
330
63
100
AcDbEntity
  8
0
  6
Continuous
 62
     7
100
AcDbLine
 10
17.14378875781
 20
925.7929011502267
 30
0.0
 11
17.14378875791519
 21
925.645813899355
 31
0.0
  0
LINE
  5
28D
330
63
100
AcDbEntity
  8
0
  6
Continuous
 62
     7
100
AcDbLine
 10
17.14378875780128
 20
923.9657642437471
 30
0.0
 11
17.1437887579049
 21
924.9290653005353
 31
0.0
  0
LINE
  5
28E
330
63
100
AcDbEntity
  8
0
  6
Continuous
 62
     7
100
AcDbLine
 10
17.14378875781
 20
925.7929011502267
 30
0.0
 11
-0.55621124455112
 21
925.7929011501392
 31
0.0
  0
LINE
  5
28F
330
63
100
AcDbEntity
  8
0
  6
Continuous
 62
     7
100
AcDbLine
 10
-0.55621124450872
 20
929.83253139431
 30
0.0
 11
17.14378875789308
 21
929.8325313943434
 31
0.0
  0
LINE
  5
290
330
63
100
AcDbEntity
  8
0
  6
Continuous
 62
     7
100
AcDbLine
 10
-0.55621124452912
 20
930.1718926004183
 30
0.0
 11
17.14378875785218
 21
930.1718926004519
 31
0.0
  0
LINE
  5
291
330
63
100
AcDbEntity
  8
0
  6
Continuous
 62
     7
100
AcDbLine
 10
-0.55621124449621
 20
932.3188361327309
 30
0.0
 11
17.14378875791709
 21
932.3188361327643
 31
0.0
  0
LINE
  5
292
330
63
100
AcDbEntity
  8
0
  6
Continuous
 62
     7
100
AcDbLine
 10
-0.55621124448371
 20
934.805140871018
 30
0.0
 11
17.14378875794108
 21
934.8051408710515
 31
0.0
  0
LINE
  5
293
330
63
100
AcDbEntity
  8
0
  6
Continuous
 62
     7
100
AcDbLine
 10
17.14378875790018
 20
935.1445020771536
 30
0.0
 11
-0.55621124450411
 21
935.14450207712
 31
0.0
  0
LINE
  5
294
330
63
100
AcDbEntity
  8
0
  6
Continuous
 62
     7
100
AcDbLine
 10
17.1437887579242
 20
937.630806815703
 30
0.0
 11
-0.55621124449161
 21
937.6308068156694
 31
0.0
  0
LINE
  5
295
330
63
100
AcDbEntity
  8
0
  6
Continuous
 62
     7
100
AcDbLine
 10
17.14378875798428
 20
939.2804905862414
 30
0.0
 11
-0.55621124446122
 21
939.2804905862079
 31
0.0
  0
LINE
  5
296
330
63
100
AcDbEntity
  8
0
  6
Continuous
 62
     7
100
AcDbLine
 10
17.14378875796029
 20
936.7941858478207
 30
0.0
 11
-0.5562112444737
 21
936.7941858477872
 31
0.0
  0
LINE
  5
297
330
63
100
AcDbEntity
  8
0
  6
Continuous
 62
     7
100
AcDbLine
 10
17.14378875791229
 20
931.82157637098
 30
0.0
 11
-0.55621124449871
 21
931.8215763709466
 31
0.0
  0
LINE
  5
298
330
63
100
AcDbEntity
  8
0
  6
Continuous
 62
     7
100
AcDbLine
 10
-0.55621124453452
 20
943.0406035605985
 30
0.0
 11
17.14378875783598
 21
943.040603560686
 31
0.0
  0
LINE
  5
299
330
63
100
AcDbEntity
  8
0
  6
Continuous
 62
     7
100
AcDbLine
 10
-0.5562112452657
 20
953.3619692637751
 30
0.0
 11
-0.55621124496892
 21
953.0207731392396
 31
0.0
  0
LINE
  5
29A
330
63
100
AcDbEntity
  8
0
  6
Continuous
 62
     7
100
AcDbLine
 10
15.39378875547669
 20
952.5331433794897
 30
0.0
 11
15.39378875547669
 21
952.5478689318536
 31
0.0
  0
LINE
  5
29B
330
63
100
AcDbEntity
  8
0
  6
Continuous
 62
     7
100
AcDbLine
 10
15.39378875547669
 20
952.5478689318536
 30
0.0
 11
1.1937887561555
 21
952.5478689319133
 31
0.0
  0
LINE
  5
29C
330
63
100
AcDbEntity
  8
0
  6
Continuous
 62
     7
100
AcDbLine
 10
-0.556211244699
 20
952.5075668437788
 30
0.0
 11
-0.55621124457281
 21
952.2054853865606
 31
0.0
  0
LINE
  5
29D
330
63
100
AcDbEntity
  8
0
  6
Continuous
 62
     7
100
AcDbLine
 10
-0.55621124445861
 20
939.7777503479881
 30
0.0
 11
-0.55621124446122
 21
939.2804905862079
 31
0.0
  0
LINE
  5
29E
330
63
100
AcDbEntity
  8
0
  6
Continuous
 62
     7
100
AcDbLine
 10
-0.55621124445861
 20
939.7777503479881
 30
0.0
 11
-0.5562112444791
 21
940.1171115540901
 31
0.0
  0
LINE
  5
29F
330
63
100
AcDbEntity
  8
0
  6
Continuous
 62
     7
100
AcDbLine
 10
-0.55621124451662
 20
932.6581973388329
 30
0.0
 11
-0.55621124448621
 21
934.3078811092345
 31
0.0
  0
LINE
  5
2A0
330
63
100
AcDbEntity
  8
0
  6
Continuous
 62
     7
100
AcDbLine
 10
-0.5562112444955
 20
936.8464500792882
 30
0.0
 11
-0.5562112444712
 21
937.2914456095674
 31
0.0
  0
LINE
  5
2A1
330
63
100
AcDbEntity
  8
0
  6
Continuous
 62
     7
100
AcDbLine
 10
-0.55621124449161
 20
937.6308068156694
 30
0.0
 11
-0.55621124446122
 21
939.2804905862079
 31
0.0
  0
LINE
  5
2A2
330
63
100
AcDbEntity
  8
0
  6
Continuous
 62
     7
100
AcDbLine
 10
-0.55621124452051
 20
931.8738406025802
 30
0.0
 11
-0.55621124449621
 21
932.3188361327309
 31
0.0
  0
LINE
  5
2A3
330
63
100
AcDbEntity
  8
0
  6
Continuous
 62
     7
100
AcDbLine
 10
-0.5562112445038
 20
924.9290652997054
 30
0.0
 11
-0.55621124449851
 21
925.6458138993621
 31
0.0
  0
LINE
  5
2A4
330
63
100
AcDbEntity
  8
0
  6
Continuous
 62
     7
100
AcDbLine
 10
-0.55621124450872
 20
929.83253139431
 30
0.0
 11
-0.55621124452912
 21
930.1718926004183
 31
0.0
  0
LINE
  5
2A5
330
63
100
AcDbEntity
  8
0
  6
Continuous
 62
     7
100
AcDbLine
 10
-0.55621124448371
 20
934.805140871018
 30
0.0
 11
-0.55621124450411
 21
935.14450207712
 31
0.0
  0
LINE
  5
2A6
330
63
100
AcDbEntity
  8
0
  6
Continuous
 62
     7
100
AcDbLine
 10
-0.55621124446481
 20
942.8456126111519
 30
0.0
 11
-0.55621124453452
 21
943.0406035605985
 31
0.0
  0
LINE
  5
2A7
330
63
100
AcDbEntity
  8
0
  6
Continuous
 62
     7
100
AcDbLine
 10
-0.55621124453452
 20
943.0406035605985
 30
0.0
 11
-0.55621124457622
 21
943.9251274970264
 31
0.0
  0
LINE
  5
2A8
330
63
100
AcDbEntity
  8
0
  6
Continuous
 62
     7
100
AcDbLine
 10
-0.55621124457281
 20
952.2054853865606
 30
0.0
 11
-0.55621124457622
 21
943.9251274970264
 31
0.0
  0
LINE
  5
2A9
330
63
100
AcDbEntity
  8
0
  6
Continuous
 62
     7
100
AcDbLine
 10
-0.55621124449161
 20
937.6308068156694
 30
0.0
 11
-0.5562112444712
 21
937.2914456095674
 31
0.0
  0
LINE
  5
2AA
330
63
100
AcDbEntity
  8
0
  6
Continuous
 62
     7
100
AcDbLine
 10
-0.55621124448371
 20
934.805140871018
 30
0.0
 11
-0.55621124448621
 21
934.3078811092345
 31
0.0
  0
LINE
  5
2AB
330
63
100
AcDbEntity
  8
0
  6
Continuous
 62
     7
100
AcDbLine
 10
-0.55621124446881
 20
942.1565219445561
 30
0.0
 11
-0.5562112444791
 21
940.1171115540901
 31
0.0
  0
LINE
  5
2AC
330
63
100
AcDbEntity
  8
0
  6
Continuous
 62
     7
100
AcDbLine
 10
-0.55621124446881
 20
942.1565219445561
 30
0.0
 11
-0.55621124446481
 21
942.8456126111519
 31
0.0
  0
LINE
  5
2AD
330
63
100
AcDbEntity
  8
0
  6
Continuous
 62
     7
100
AcDbLine
 10
-0.5562112444955
 20
936.8464500792882
 30
0.0
 11
-0.5562112444737
 21
936.7941858477872
 31
0.0
  0
LINE
  5
2AE
330
63
100
AcDbEntity
  8
0
  6
Continuous
 62
     7
100
AcDbLine
 10
-0.55621124451662
 20
932.6581973388329
 30
0.0
 11
-0.55621124449621
 21
932.3188361327309
 31
0.0
  0
LINE
  5
2AF
330
63
100
AcDbEntity
  8
0
  6
Continuous
 62
     7
100
AcDbLine
 10
-0.55621124449871
 20
931.8215763709466
 30
0.0
 11
-0.55621124452051
 21
931.8738406025802
 31
0.0
  0
LINE
  5
2B0
330
63
100
AcDbEntity
  8
0
  6
Continuous
 62
     7
100
AcDbLine
 10
-0.55621124450872
 20
929.83253139431
 30
0.0
 11
-0.55621124451122
 21
929.3352716325256
 31
0.0
  0
LINE
  5
2B1
330
63
100
AcDbEntity
  8
0
  6
Continuous
 62
     7
100
AcDbLine
 10
-0.55621124455581
 20
923.9657642436547
 30
0.0
 11
-0.5562112445038
 21
924.9290652997054
 31
0.0
  0
LINE
  5
2B2
330
63
100
AcDbEntity
  8
0
  6
Continuous
 62
     7
100
AcDbLine
 10
-0.55621124455112
 20
925.7929011501392
 30
0.0
 11
-0.55621124449851
 21
925.6458138993621
 31
0.0
  0
LINE
  5
2B3
330
63
100
AcDbEntity
  8
0
  6
Continuous
 62
     7
100
AcDbLine
 10
-0.55621124452912
 20
930.1718926004183
 30
0.0
 11
-0.55621124449871
 21
931.8215763709466
 31
0.0
  0
LINE
  5
2B4
330
63
100
AcDbEntity
  8
0
  6
Continuous
 62
     7
100
AcDbLine
 10
-0.5562112444737
 20
936.7941858477872
 30
0.0
 11
-0.55621124450411
 21
935.14450207712
 31
0.0
  0
LINE
  5
2B5
330
63
100
AcDbEntity
  8
0
  6
Continuous
 62
     7
100
AcDbLine
 10
-0.55621124451122
 20
929.3352716325256
 30
0.0
 11
-0.55621124455112
 21
925.7929011501392
 31
0.0
  0
LINE
  5
2B6
330
63
100
AcDbEntity
  8
0
  6
Continuous
 62
     7
100
AcDbLine
 10
17.14378875775569
 20
952.2054853864114
 30
0.0
 11
-0.55621124457281
 21
952.2054853865606
 31
0.0
  0
LINE
  5
2B7
330
63
100
AcDbEntity
  8
0
  6
Continuous
 62
     7
100
AcDbLine
 10
15.39378875547669
 20
952.5331433794897
 30
0.0
 11
1.1937887561555
 21
952.533143379599
 31
0.0
  0
LINE
  5
2B8
330
63
100
AcDbEntity
  8
0
  6
Continuous
 62
     7
100
AcDbLine
 10
1.19378875615558
 20
952.9160498352019
 30
0.0
 11
15.39378875547689
 21
952.9160498350926
 31
0.0
  0
LINE
  5
2B9
330
63
100
AcDbEntity
  8
0
  6
Continuous
 62
     7
100
AcDbLine
 10
17.14378875696318
 20
953.0207731392323
 30
0.0
 11
-0.55621124496892
 21
953.0207731392396
 31
0.0
  0
LINE
  5
2BA
330
63
100
AcDbEntity
  8
0
  6
Continuous
 62
     7
100
AcDbLine
 10
17.14378875636939
 20
953.361969263768
 30
0.0
 11
-0.5562112452657
 21
953.3619692637751
 31
0.0
  0
LINE
  5
2BB
330
63
100
AcDbEntity
  8
0
  6
Continuous
 62
     7
100
AcDbLine
 10
-0.5562112455614
 20
953.4751404530758
 30
0.0
 11
17.14378875577799
 21
953.475140453068
 31
0.0
  0
LINE
  5
2BC
330
63
100
AcDbEntity
  8
0
  6
Continuous
 62
     7
100
AcDbLine
 10
-0.55621124446881
 20
942.1565219445561
 30
0.0
 11
17.1437887579678
 21
942.1565219003573
 31
0.0
  0
ENDBLK
  5
65
330
63
100
AcDbEntity
  8
0
100
AcDbBlockEnd
  0
BLOCK
  5
68
330
66
100
AcDbEntity
  8
0
100
AcDbBlockBegin
  2
SA_Rechts2
 70
     0
 10
17.09378899999948
 20
938.762569
 30
0.0
  3
SA_Rechts2
  1

  0
INSERT
  5
67
330
66
100
AcDbEntity
  8
0
100
AcDbBlockReference
  2
PT_IQ_1X2_24DC_P-select__5
 10
-0.5562112455614
 20
900.0499994530039
 30
0.0
  0
MTEXT
  5
2BD
330
66
100
AcDbEntity
  8
1
 62
     6
100
AcDbMText
 10
8.2937894343986
 20
895.0499996928512
 30
0.0
 40
5.0
 41
0.0
 71
     2
 72
     1
  1
 
  7
CONVERTER_11
 73
     1
 44
1.32052821128451
  0
ENDBLK
  5
69
330
66
100
AcDbEntity
  8
0
100
AcDbBlockEnd
  0
BLOCK
  5
6B
330
6A
100
AcDbEntity
  8
0
100
AcDbBlockBegin
  2
PT_IQ_1X2_24DC_P-select__6
 70
     0
 10
78.14378978458933
 20
900.049999453004
 30
0.0
  3
PT_IQ_1X2_24DC_P-select__6
  1

  0
LINE
  5
2BE
330
6A
100
AcDbEntity
  8
0
  6
Continuous
 62
     7
100
AcDbLine
 10
121.0437551624078
 20
900.0499994530112
 30
0.0
 11
118.0437551624078
 21
900.0499994530112
 31
0.0
  0
LINE
  5
2BF
330
6A
100
AcDbEntity
  8
0
  6
Continuous
 62
     7
100
AcDbLine
 10
90.4437900447162
 20
906.8999994530154
 30
0.0
 11
90.4437900447162
 21
900.9676561553031
 31
0.0
  0
LINE
  5
2C0
330
6A
100
AcDbEntity
  8
0
  6
Continuous
 62
     7
100
AcDbLine
 10
90.4437900447162
 20
900.9676561553031
 30
0.0
 11
86.84379004459609
 21
900.9676561553031
 31
0.0
  0
LINE
  5
2C1
330
6A
100
AcDbEntity
  8
0
  6
Continuous
 62
     7
100
AcDbLine
 10
86.84379004459609
 20
900.9676561553031
 30
0.0
 11
86.84379004459609
 21
906.8999994530154
 31
0.0
  0
LINE
  5
2C2
330
6A
100
AcDbEntity
  8
0
  6
Continuous
 62
     7
100
AcDbLine
 10
83.24375512906362
 20
906.8999994530175
 30
0.0
 11
83.24375512906362
 21
900.049999453004
 31
0.0
  0
LINE
  5
2C3
330
6A
100
AcDbEntity
  8
0
  6
Continuous
 62
     7
100
AcDbLine
 10
83.24375512906362
 20
900.049999453004
 30
0.0
 11
80.24375512906362
 21
900.049999453004
 31
0.0
  0
LINE
  5
2C4
330
6A
100
AcDbEntity
  8
0
  6
Continuous
 62
     7
100
AcDbLine
 10
80.24375512906362
 20
900.049999453004
 30
0.0
 11
80.24375512906362
 21
906.8999994530175
 31
0.0
  0
LINE
  5
2C5
330
6A
100
AcDbEntity
  8
0
  6
Continuous
 62
     7
100
AcDbLine
 10
118.0437551624078
 20
906.8999994530175
 30
0.0
 11
90.4437900447162
 21
906.8999994530154
 31
0.0
  0
LINE
  5
2C6
330
6A
100
AcDbEntity
  8
0
  6
Continuous
 62
     7
100
AcDbLine
 10
121.0437551624078
 20
906.8999994530175
 30
0.0
 11
118.0437551624078
 21
906.8999994530175
 31
0.0
  0
LINE
  5
2C7
330
6A
100
AcDbEntity
  8
0
  6
Continuous
 62
     7
100
AcDbLine
 10
123.1437900911687
 20
906.8999994530188
 30
0.0
 11
121.0437551624078
 21
906.8999994530175
 31
0.0
  0
LINE
  5
2C8
330
6A
100
AcDbEntity
  8
0
  6
Continuous
 62
     7
100
AcDbLine
 10
86.84379004459609
 20
906.8999994530154
 30
0.0
 11
83.24375512906362
 21
906.8999994530175
 31
0.0
  0
LINE
  5
2C9
330
6A
100
AcDbEntity
  8
0
  6
Continuous
 62
     7
100
AcDbLine
 10
90.4437900447162
 20
906.8999994530154
 30
0.0
 11
86.84379004459609
 21
906.8999994530154
 31
0.0
  0
LINE
  5
2CA
330
6A
100
AcDbEntity
  8
0
  6
Continuous
 62
     7
100
AcDbLine
 10
83.24375512906362
 20
906.8999994530175
 30
0.0
 11
80.24375512906362
 21
906.8999994530175
 31
0.0
  0
LINE
  5
2CB
330
6A
100
AcDbEntity
  8
0
  6
Continuous
 62
     7
100
AcDbLine
 10
80.24375512906362
 20
906.8999994530175
 30
0.0
 11
78.1437901422218
 21
906.8999994530188
 31
0.0
  0
LINE
  5
2CC
330
6A
100
AcDbEntity
  8
0
  6
Continuous
 62
     7
100
AcDbLine
 10
118.0437551624078
 20
900.0499994530112
 30
0.0
 11
118.0437551624078
 21
906.8999994530175
 31
0.0
  0
LINE
  5
2CD
330
6A
100
AcDbEntity
  8
0
  6
Continuous
 62
     7
100
AcDbLine
 10
121.0437551624078
 20
906.8999994530175
 30
0.0
 11
121.0437551624078
 21
900.0499994530112
 31
0.0
  0
LINE
  5
2CE
330
6A
100
AcDbEntity
  8
0
  6
Continuous
 62
     7
100
AcDbLine
 10
125.0815191035249
 20
925.6458138993619
 30
0.0
 11
124.9679972777148
 21
924.9290652997051
 31
0.0
  0
LINE
  5
2CF
330
6A
100
AcDbEntity
  8
0
  6
Continuous
 62
     7
100
AcDbLine
 10
125.0722471235594
 20
932.3188361327307
 30
0.0
 11
125.0199830165687
 21
931.8215763709463
 31
0.0
  0
LINE
  5
2D0
330
6A
100
AcDbEntity
  8
0
  6
Continuous
 62
     7
100
AcDbLine
 10
125.3335682829916
 20
934.8051408710178
 30
0.0
 11
125.281304176001
 21
934.3078811092342
 31
0.0
  0
LINE
  5
2D1
330
6A
100
AcDbEntity
  8
0
  6
Continuous
 62
     7
100
AcDbLine
 10
125.5426253329068
 20
936.7941858477869
 30
0.0
 11
125.0453643864867
 21
936.8464500792879
 31
0.0
  0
LINE
  5
2D2
330
6A
100
AcDbEntity
  8
0
  6
Continuous
 62
     7
100
AcDbLine
 10
125.5948894398971
 20
937.2914456095672
 30
0.0
 11
125.5426253329068
 21
936.7941858477869
 31
0.0
  0
LINE
  5
2D3
330
6A
100
AcDbEntity
  8
0
  6
Continuous
 62
     7
100
AcDbLine
 10
125.1278036001623
 20
937.6308068156693
 30
0.0
 11
125.5948894398971
 21
937.2914456095672
 31
0.0
  0
LINE
  5
2D4
330
6A
100
AcDbEntity
  8
0
  6
Continuous
 62
     7
100
AcDbLine
 10
125.8039464910759
 20
939.2804905862076
 30
0.0
 11
125.3066855433926
 21
939.3327548178414
 31
0.0
  0
LINE
  5
2D5
330
6A
100
AcDbEntity
  8
0
  6
Continuous
 62
     7
100
AcDbLine
 10
125.8562105980662
 20
939.7777503479879
 30
0.0
 11
125.8039464910759
 21
939.2804905862076
 31
0.0
  0
LINE
  5
2D6
330
6A
100
AcDbEntity
  8
0
  6
Continuous
 62
     7
100
AcDbLine
 10
125.3891247583314
 20
940.1171115540899
 30
0.0
 11
125.8562105980662
 21
939.7777503479879
 31
0.0
  0
LINE
  5
2D7
330
6A
100
AcDbEntity
  8
0
  6
Continuous
 62
     7
100
AcDbLine
 10
123.7938547443726
 20
923.9657642436546
 30
0.0
 11
124.9679972777148
 21
924.9290652997051
 31
0.0
  0
LINE
  5
2D8
330
6A
100
AcDbEntity
  8
0
  6
Continuous
 62
     7
100
AcDbLine
 10
122.3019068249172
 20
918.0113304624156
 30
0.0
 11
123.0089863568615
 21
926.2298237673585
 31
0.0
  0
LINE
  5
2D9
330
6A
100
AcDbEntity
  8
0
  6
Continuous
 62
     7
100
AcDbLine
 10
124.3438401256563
 20
930.1718926004181
 30
0.0
 11
124.8109259653998
 21
929.8325313943097
 31
0.0
  0
LINE
  5
2DA
330
6A
100
AcDbEntity
  8
0
  6
Continuous
 62
     7
100
AcDbLine
 10
124.3438401256563
 20
930.1718926004181
 30
0.0
 11
124.5227220688855
 21
931.8738406025801
 31
0.0
  0
LINE
  5
2DB
330
6A
100
AcDbEntity
  8
0
  6
Continuous
 62
     7
100
AcDbLine
 10
124.7840432270545
 20
934.3601453410008
 30
0.0
 11
124.6051612838247
 21
932.6581973388327
 31
0.0
  0
LINE
  5
2DC
330
6A
100
AcDbEntity
  8
0
  6
Continuous
 62
     7
100
AcDbLine
 10
125.0453643864867
 20
936.8464500792879
 30
0.0
 11
124.8664824432569
 21
935.1445020771199
 31
0.0
  0
LINE
  5
2DD
330
6A
100
AcDbEntity
  8
0
  6
Continuous
 62
     7
100
AcDbLine
 10
124.1000112801215
 20
943.0406035605984
 30
0.0
 11
125.6880851227345
 21
942.8456126111516
 31
0.0
  0
LINE
  5
2DE
330
6A
100
AcDbEntity
  8
0
  6
Continuous
 62
     7
100
AcDbLine
 10
123.8835895780581
 20
925.792901150139
 30
0.0
 11
125.0815191035249
 21
925.6458138993619
 31
0.0
  0
LINE
  5
2DF
330
6A
100
AcDbEntity
  8
0
  6
Continuous
 62
     7
100
AcDbLine
 10
122.3019068249172
 20
918.0113304624156
 30
0.0
 11
121.293304896758
 21
919.4574129701548
 31
0.0
  0
LINE
  5
2E0
330
6A
100
AcDbEntity
  8
0
  6
Continuous
 62
     7
100
AcDbLine
 10
124.8109259653998
 20
929.8325313943097
 30
0.0
 11
124.7586618584091
 21
929.3352716325254
 31
0.0
  0
LINE
  5
2E1
330
6A
100
AcDbEntity
  8
0
  6
Continuous
 62
     7
100
AcDbLine
 10
125.0199830165687
 20
931.8215763709463
 30
0.0
 11
124.5227220688855
 21
931.8738406025801
 31
0.0
  0
LINE
  5
2E2
330
6A
100
AcDbEntity
  8
0
  6
Continuous
 62
     7
100
AcDbLine
 10
124.6051612838247
 20
932.6581973388327
 30
0.0
 11
125.0722471235594
 21
932.3188361327307
 31
0.0
  0
LINE
  5
2E3
330
6A
100
AcDbEntity
  8
0
  6
Continuous
 62
     7
100
AcDbLine
 10
125.281304176001
 20
934.3078811092342
 30
0.0
 11
124.7840432270545
 21
934.3601453410008
 31
0.0
  0
LINE
  5
2E4
330
6A
100
AcDbEntity
  8
0
  6
Continuous
 62
     7
100
AcDbLine
 10
124.8664824432569
 20
935.1445020771199
 30
0.0
 11
125.3335682829916
 21
934.8051408710178
 31
0.0
  0
LINE
  5
2E5
330
6A
100
AcDbEntity
  8
0
  6
Continuous
 62
     7
100
AcDbLine
 10
125.3066855433926
 20
939.3327548178414
 30
0.0
 11
125.1278036001623
 21
937.6308068156693
 31
0.0
  0
LINE
  5
2E6
330
6A
100
AcDbEntity
  8
0
  6
Continuous
 62
     7
100
AcDbLine
 10
125.6034754278142
 20
942.156521944556
 30
0.0
 11
125.3891247583314
 21
940.1171115540899
 31
0.0
  0
LINE
  5
2E7
330
6A
100
AcDbEntity
  8
0
  6
Continuous
 62
     7
100
AcDbLine
 10
125.6034754278142
 20
942.156521944556
 30
0.0
 11
125.6880851227345
 21
942.8456126111516
 31
0.0
  0
LINE
  5
2E8
330
6A
100
AcDbEntity
  8
0
  6
Continuous
 62
     7
100
AcDbLine
 10
123.1437898439371
 20
943.9251274970263
 30
0.0
 11
121.1438382751192
 21
943.9251274970263
 31
0.0
  0
LINE
  5
2E9
330
6A
100
AcDbEntity
  8
0
  6
Continuous
 62
     7
100
AcDbLine
 10
124.2614009107349
 20
929.3875358641582
 30
0.0
 11
123.8835895780581
 21
925.792901150139
 31
0.0
  0
LINE
  5
2EA
330
6A
100
AcDbEntity
  8
0
  6
Continuous
 62
     7
100
AcDbLine
 10
123.9005887181859
 20
941.4164371306408
 30
0.0
 11
124.1000112801215
 21
943.0406035605984
 31
0.0
  0
LINE
  5
2EB
330
6A
100
AcDbEntity
  8
0
  6
Continuous
 62
     7
100
AcDbLine
 10
121.293304896758
 20
919.4574129701548
 30
0.0
 11
121.1438382751192
 21
943.9251274970263
 31
0.0
  0
LINE
  5
2EC
330
6A
100
AcDbEntity
  8
0
  6
Continuous
 62
     7
100
AcDbLine
 10
79.04378981281883
 20
948.47512749704
 30
0.0
 11
78.14378978458933
 21
948.47512749704
 31
0.0
  0
LINE
  5
2ED
330
6A
100
AcDbEntity
  8
0
  6
Continuous
 62
     7
100
AcDbLine
 10
78.14378978458942
 20
952.205472438834
 30
0.0
 11
78.14378978458933
 21
948.47512749704
 31
0.0
  0
LINE
  5
2EE
330
6A
100
AcDbEntity
  8
0
  6
Continuous
 62
     7
100
AcDbLine
 10
79.04378981281883
 20
948.47512749704
 30
0.0
 11
79.04378981281879
 21
946.7638046894692
 31
0.0
  0
LINE
  5
2EF
330
6A
100
AcDbEntity
  8
0
  6
Continuous
 62
     7
100
AcDbLine
 10
79.04378981281874
 20
945.97512749704
 30
0.0
 11
79.04378981281872
 21
944.2638046894692
 31
0.0
  0
LINE
  5
2F0
330
6A
100
AcDbEntity
  8
0
  6
Continuous
 62
     7
100
AcDbLine
 10
79.04378981154854
 20
943.47512749704
 30
0.0
 11
79.04378981154849
 21
941.7638046894706
 31
0.0
  0
LINE
  5
2F1
330
6A
100
AcDbEntity
  8
0
  6
Continuous
 62
     7
100
AcDbLine
 10
79.04378981281862
 20
940.9751274970407
 30
0.0
 11
79.04378981281857
 21
939.2638046894714
 31
0.0
  0
LINE
  5
2F2
330
6A
100
AcDbEntity
  8
0
  6
Continuous
 62
     7
100
AcDbLine
 10
79.04378981281857
 20
938.4751274970407
 30
0.0
 11
79.04378981281855
 21
936.7638046894714
 31
0.0
  0
LINE
  5
2F3
330
6A
100
AcDbEntity
  8
0
  6
Continuous
 62
     7
100
AcDbLine
 10
79.04378981281862
 20
935.9751274970415
 30
0.0
 11
79.04378981281852
 21
934.1868243285544
 31
0.0
  0
LINE
  5
2F4
330
6A
100
AcDbEntity
  8
0
  6
Continuous
 62
     7
100
AcDbLine
 10
78.54378987487215
 20
935.9751274970415
 30
0.0
 11
79.04378981281862
 21
935.9751274970415
 31
0.0
  0
LINE
  5
2F5
330
6A
100
AcDbEntity
  8
0
  6
Continuous
 62
     7
100
AcDbLine
 10
78.54378981281963
 20
946.4751263046038
 30
0.0
 11
78.54378981281963
 21
945.97512749704
 31
0.0
  0
LINE
  5
2F6
330
6A
100
AcDbEntity
  8
0
  6
Continuous
 62
     7
100
AcDbLine
 10
78.54378981281963
 20
945.97512749704
 30
0.0
 11
79.04378981281874
 21
945.97512749704
 31
0.0
  0
LINE
  5
2F7
330
6A
100
AcDbEntity
  8
0
  6
Continuous
 62
     7
100
AcDbLine
 10
78.5437898128196
 20
943.9751263046038
 30
0.0
 11
78.5437898128196
 21
943.47512749704
 31
0.0
  0
LINE
  5
2F8
330
6A
100
AcDbEntity
  8
0
  6
Continuous
 62
     7
100
AcDbLine
 10
78.5437898128196
 20
943.47512749704
 30
0.0
 11
79.04378981154854
 21
943.47512749704
 31
0.0
  0
LINE
  5
2F9
330
6A
100
AcDbEntity
  8
0
  6
Continuous
 62
     7
100
AcDbLine
 10
79.04378981154849
 20
941.7638046894706
 30
0.0
 11
78.54378981154942
 21
941.4751263046052
 31
0.0
  0
LINE
  5
2FA
330
6A
100
AcDbEntity
  8
0
  6
Continuous
 62
     7
100
AcDbLine
 10
78.54378981154942
 20
941.4751263046052
 30
0.0
 11
78.54378981154939
 21
940.9751274970407
 31
0.0
  0
LINE
  5
2FB
330
6A
100
AcDbEntity
  8
0
  6
Continuous
 62
     7
100
AcDbLine
 10
78.54378981154939
 20
940.9751274970407
 30
0.0
 11
79.04378981281862
 21
940.9751274970407
 31
0.0
  0
LINE
  5
2FC
330
6A
100
AcDbEntity
  8
0
  6
Continuous
 62
     7
100
AcDbLine
 10
79.04378981281857
 20
939.2638046894714
 30
0.0
 11
78.54378981281948
 21
938.9751263046059
 31
0.0
  0
LINE
  5
2FD
330
6A
100
AcDbEntity
  8
0
  6
Continuous
 62
     7
100
AcDbLine
 10
78.54378981281948
 20
938.9751263046059
 30
0.0
 11
78.54378981281948
 21
938.4751274970407
 31
0.0
  0
LINE
  5
2FE
330
6A
100
AcDbEntity
  8
0
  6
Continuous
 62
     7
100
AcDbLine
 10
78.54378981281948
 20
938.4751274970407
 30
0.0
 11
79.04378981281857
 21
938.4751274970407
 31
0.0
  0
LINE
  5
2FF
330
6A
100
AcDbEntity
  8
0
  6
Continuous
 62
     7
100
AcDbLine
 10
79.04378981281855
 20
936.7638046894714
 30
0.0
 11
78.54378987487215
 21
936.4751263404324
 31
0.0
  0
LINE
  5
300
330
6A
100
AcDbEntity
  8
0
  6
Continuous
 62
     7
100
AcDbLine
 10
78.54378987487215
 20
936.4751263404324
 30
0.0
 11
78.54378987487215
 21
935.9751274970415
 31
0.0
  0
LINE
  5
301
330
6A
100
AcDbEntity
  8
0
  6
Continuous
 62
     7
100
AcDbLine
 10
79.04378981281872
 20
944.2638046894692
 30
0.0
 11
78.5437898128196
 21
943.9751263046038
 31
0.0
  0
LINE
  5
302
330
6A
100
AcDbEntity
  8
0
  6
Continuous
 62
     7
100
AcDbLine
 10
82.5828597754365
 20
951.0280769604466
 30
0.0
 11
82.5858628528039
 21
951.7809358269507
 31
0.0
  0
LINE
  5
303
330
6A
100
AcDbEntity
  8
0
  6
Continuous
 62
     7
100
AcDbLine
 10
82.5828597754365
 20
951.0280769604466
 30
0.0
 11
80.99151012528742
 21
950.8952459939512
 31
0.0
  0
LINE
  5
304
330
6A
100
AcDbEntity
  8
0
  6
Continuous
 62
     7
100
AcDbLine
 10
87.16108701168594
 20
953.0207731391612
 30
0.0
 11
87.29459036609435
 21
951.421368107104
 31
0.0
  0
LINE
  5
305
330
6A
100
AcDbEntity
  8
0
  6
Continuous
 62
     7
100
AcDbLine
 10
85.57546612907618
 20
952.0304799122404
 30
0.0
 11
82.5858628528039
 21
951.7809358269507
 31
0.0
  0
LINE
  5
306
330
6A
100
AcDbEntity
  8
0
  6
Continuous
 62
     7
100
AcDbLine
 10
85.70324124541055
 20
951.288537184671
 30
0.0
 11
85.57546612907618
 21
952.0304799122404
 31
0.0
  0
LINE
  5
307
330
6A
100
AcDbEntity
  8
0
  6
Continuous
 62
     7
100
AcDbLine
 10
87.29459036609435
 20
951.421368107104
 30
0.0
 11
85.70324124541055
 21
951.288537184671
 31
0.0
  0
LINE
  5
308
330
6A
100
AcDbEntity
  8
0
  6
Continuous
 62
     7
100
AcDbLine
 10
80.8580379741937
 20
952.4942772208032
 30
0.0
 11
80.99151012528742
 21
950.8952459939512
 31
0.0
  0
LINE
  5
309
330
6A
100
AcDbEntity
  8
0
  6
Continuous
 62
     7
100
AcDbLine
 10
78.1437901422218
 20
906.8999994530188
 30
0.0
 11
78.1437901422218
 21
934.0136163859489
 31
0.0
  0
LINE
  5
30A
330
6A
100
AcDbEntity
  8
0
  6
Continuous
 62
     7
100
AcDbLine
 10
87.16108701168594
 20
953.0207731391612
 30
0.0
 11
93.9165565180526
 21
953.3619692651931
 31
0.0
  0
LINE
  5
30B
330
6A
100
AcDbEntity
  8
0
  6
Continuous
 62
     7
100
AcDbLine
 10
78.14378978458942
 20
952.205472438834
 30
0.0
 11
80.8580379741937
 21
952.4942772208032
 31
0.0
  0
LINE
  5
30C
330
6A
100
AcDbEntity
  8
0
  6
Continuous
 62
     7
100
AcDbLine
 10
79.04378981281879
 20
946.7638046894692
 30
0.0
 11
78.54378981281963
 21
946.4751263046038
 31
0.0
  0
LINE
  5
30D
330
6A
100
AcDbEntity
  8
0
  6
Continuous
 62
     7
100
AcDbLine
 10
78.1437901422218
 20
934.0136163859489
 30
0.0
 11
79.04378981281852
 21
934.1868243285544
 31
0.0
  0
LINE
  5
30E
330
6A
100
AcDbEntity
  8
0
  6
Continuous
 62
     7
100
AcDbLine
 10
123.1437900911687
 20
906.8999994530188
 30
0.0
 11
123.1437897523833
 21
918.4167474014728
 31
0.0
  0
LINE
  5
30F
330
6A
100
AcDbEntity
  8
0
  6
Continuous
 62
     7
100
AcDbLine
 10
123.7938547443726
 20
923.9657642436546
 30
0.0
 11
123.1437897523833
 21
918.4167474014728
 31
0.0
  0
LINE
  5
310
330
6A
100
AcDbEntity
  8
0
  6
Continuous
 62
     7
100
AcDbLine
 10
123.1437898440691
 20
952.2054853865603
 30
0.0
 11
123.1437898439371
 21
943.9251274970263
 31
0.0
  0
LINE
  5
311
330
6A
100
AcDbEntity
  8
0
  6
Continuous
 62
     7
100
AcDbLine
 10
124.7586618584091
 20
929.3352716325254
 30
0.0
 11
124.2614009107349
 21
929.3875358641582
 31
0.0
  0
LINE
  5
312
330
6A
100
AcDbEntity
  8
0
  6
Continuous
 62
     7
100
AcDbLine
 10
124.6924284795081
 20
941.3192114332414
 30
0.0
 11
123.9005887181859
 21
941.4164371306408
 31
0.0
  0
LINE
  5
313
330
6A
100
AcDbEntity
  8
0
  6
Continuous
 62
     7
100
AcDbLine
 10
120.2704423291699
 20
952.5075668437786
 30
0.0
 11
123.1437898440691
 21
952.2054853865603
 31
0.0
  0
LINE
  5
314
330
6A
100
AcDbEntity
  8
0
  6
Continuous
 62
     7
100
AcDbLine
 10
114.1264926152913
 20
953.0207731392394
 30
0.0
 11
120.2704423291699
 21
952.5075668437786
 31
0.0
  0
LINE
  5
315
330
6A
100
AcDbEntity
  8
0
  6
Continuous
 62
     7
100
AcDbLine
 10
107.3710231380343
 20
953.361969263775
 30
0.0
 11
114.1264926152913
 21
953.0207731392394
 31
0.0
  0
LINE
  5
316
330
6A
100
AcDbEntity
  8
0
  6
Continuous
 62
     7
100
AcDbLine
 10
100.6437897859311
 20
953.4751404530756
 30
0.0
 11
107.3710231380343
 21
953.361969263775
 31
0.0
  0
LINE
  5
317
330
6A
100
AcDbEntity
  8
0
  6
Continuous
 62
     7
100
AcDbLine
 10
93.9165565180526
 20
953.3619692651931
 30
0.0
 11
100.6437897859311
 21
953.4751404530756
 31
0.0
  0
LINE
  5
318
330
6A
100
AcDbEntity
  8
0
  6
Continuous
 62
     7
100
AcDbLine
 10
123.0089863568615
 20
926.2298237673585
 30
0.0
 11
124.6924284795081
 21
941.3192114332414
 31
0.0
  0
ENDBLK
  5
6C
330
6A
100
AcDbEntity
  8
0
100
AcDbBlockEnd
  0
BLOCK
  5
6F
330
6D
100
AcDbEntity
  8
0
100
AcDbBlockBegin
  2
Vordans2
 70
     0
 10
117.0
 20
938.7625689999998
 30
0.0
  3
Vordans2
  1

  0
INSERT
  5
6E
330
6D
100
AcDbEntity
  8
0
100
AcDbBlockReference
  2
PT_IQ_1X2_24DC_P-select__6
 10
78.14378978458933
 20
900.049999453004
 30
0.0
  0
MTEXT
  5
319
330
6D
100
AcDbEntity
  8
1
 62
     6
100
AcDbMText
 10
102.00000000027
 20
895.0499996928512
 30
0.0
 40
5.0
 41
0.0
 71
     2
 72
     1
  1
 
  7
CONVERTER_11
 73
     1
 44
1.32052821128451
  0
DIMENSION
  5
324
330
6D
100
AcDbEntity
  8
1
100
AcDbDimension
  2
*D18
 10
62.1780193667582
 20
900.049999453004
 30
0.0
 11
58.7530193667582
 21
929.7864179516489
 31
0.0
 70
    32
  1
<>
 71
     5
 42
-1.0
 53
90.0
  3
ME10_DIM_11
100
AcDbAlignedDimension
 13
100.6437897859311
 23
953.4751404530756
 33
0.0
 14
83.24375512906362
 24
900.049999453004
 34
0.0
 50
90.0
100
AcDbRotatedDimension
  0
DIMENSION
  5
32F
330
6D
100
AcDbEntity
  8
1
100
AcDbDimension
  2
*D19
 10
70.17801936675819
 20
953.4751404530756
 30
0.0
 11
66.7530193667582
 21
929.7864179516489
 31
0.0
 70
    32
  1
<>
 71
     5
 42
-1.0
 53
90.0
  3
ME10_DIM_12
100
AcDbAlignedDimension
 13
90.4437900447162
 23
906.8999994530154
 33
0.0
 14
100.6437897859311
 24
953.4751404530756
 34
0.0
 50
90.0
100
AcDbRotatedDimension
  0
DIMENSION
  5
33A
330
6D
100
AcDbEntity
  8
1
100
AcDbDimension
  2
*D20
 10
78.14379014222183
 20
889.7049616023938
 30
0.0
 11
102.00000000027
 21
892.9549616023938
 31
0.0
 70
    32
  1
<>
 71
     5
 42
-1.0
 53
0.00013888888889
  3
ME10_DIM_13
100
AcDbAlignedDimension
 13
123.1437900911687
 23
906.8999994530188
 33
0.0
 14
78.1437901422218
 24
906.8999994530188
 34
0.0
100
AcDbRotatedDimension
  0
ENDBLK
  5
70
330
6D
100
AcDbEntity
  8
0
100
AcDbBlockEnd
  0
BLOCK
  5
72
330
71
100
AcDbEntity
  8
0
100
AcDbBlockBegin
  2
_rahmen
 70
     0
 10
269.3562099857028
 20
774.9125702980463
 30
0.0
  3
_rahmen
  1

  0
LINE
  5
33B
330
71
100
AcDbEntity
  8
1
  6
Continuous
 62
     6
100
AcDbLine
 10
139.8114054589528
 20
805.4125702980464
 30
0.0
 11
269.3562099857045
 21
805.4125702980464
 31
0.0
  0
LINE
  5
33C
330
71
100
AcDbEntity
  8
1
  6
Continuous
 62
     7
100
AcDbLine
 10
158.0114054589528
 20
784.1625702980464
 30
0.0
 11
176.2114054589527
 21
784.1625702980464
 31
0.0
  0
LINE
  5
33D
330
71
100
AcDbEntity
  8
1
  6
Continuous
 62
     6
100
AcDbLine
 10
158.0114054589528
 20
779.9125702980464
 30
0.0
 11
139.8114054589528
 21
779.9125702980463
 31
0.0
  0
LINE
  5
33E
330
71
100
AcDbEntity
  8
1
  6
Continuous
 62
     7
100
AcDbLine
 10
158.0114054589528
 20
784.1625702980464
 30
0.0
 11
158.0114054589528
 21
779.9125702980464
 31
0.0
  0
LINE
  5
33F
330
71
100
AcDbEntity
  8
1
  6
Continuous
 62
     7
100
AcDbLine
 10
176.2114054589527
 20
784.1625702980464
 30
0.0
 11
176.2114054589527
 21
779.9125702980463
 31
0.0
  0
LINE
  5
340
330
71
100
AcDbEntity
  8
1
  6
Continuous
 62
     7
100
AcDbLine
 10
139.8114054589528
 20
784.1625702980463
 30
0.0
 11
139.8114054589528
 21
779.9125702980463
 31
0.0
  0
LINE
  5
341
330
71
100
AcDbEntity
  8
1
  6
Continuous
 62
     7
100
AcDbLine
 10
139.8114054589528
 20
784.1625702980463
 30
0.0
 11
158.0114054589528
 21
784.1625702980464
 31
0.0
  0
LINE
  5
342
330
71
100
AcDbEntity
  8
1
  6
Continuous
 62
     2
100
AcDbLine
 10
149.0480603455154
 20
803.5375702980463
 30
0.0
 11
149.0480603455154
 21
798.5375702980463
 31
0.0
  0
LINE
  5
343
330
71
100
AcDbEntity
  8
1
  6
Continuous
 62
     2
100
AcDbLine
 10
149.0480603455154
 20
798.5375702980463
 30
0.0
 11
144.0480603455154
 21
799.7875702980463
 31
0.0
  0
LINE
  5
344
330
71
100
AcDbEntity
  8
1
  6
Continuous
 62
     2
100
AcDbLine
 10
144.0480603455154
 20
799.7875702980463
 30
0.0
 11
144.0480603455154
 21
802.2875702980463
 31
0.0
  0
LINE
  5
345
330
71
100
AcDbEntity
  8
1
  6
Continuous
 62
     2
100
AcDbLine
 10
144.0480603455154
 20
802.2875702980463
 30
0.0
 11
149.0480603455154
 21
803.5375702980463
 31
0.0
  0
LINE
  5
346
330
71
100
AcDbEntity
  8
1
  6
Continuous
 62
     6
100
AcDbLine
 10
17.35620998570454
 20
779.9125702980464
 30
0.0
 11
-17.64379001429535
 21
779.9125702980464
 31
0.0
  0
LINE
  5
347
330
71
100
AcDbEntity
  8
1
  6
Continuous
 62
     6
100
AcDbLine
 10
269.3562099857045
 20
796.9125702980464
 30
0.0
 11
269.356209985704
 21
788.4125702980464
 31
0.0
  0
LINE
  5
348
330
71
100
AcDbEntity
  8
1
  6
Continuous
 62
     6
100
AcDbLine
 10
176.2114054589527
 20
779.9125702980463
 30
0.0
 11
175.8562099857028
 21
779.9125702980464
 31
0.0
  0
LINE
  5
349
330
71
100
AcDbEntity
  8
1
  6
Continuous
 62
     6
100
AcDbLine
 10
23.55620998570254
 20
779.9125702980463
 30
0.0
 11
17.35620998570454
 21
779.9125702980464
 31
0.0
  0
LINE
  5
34A
330
71
100
AcDbEntity
  8
1
  6
Continuous
 62
     7
100
AcDbLine
 10
176.2114054589527
 20
796.9125702980464
 30
0.0
 11
176.2114054589527
 21
784.1625702980464
 31
0.0
  0
LINE
  5
34B
330
71
100
AcDbEntity
  8
1
  6
Continuous
 62
     7
100
AcDbLine
 10
139.8114054589528
 20
796.9125702980464
 30
0.0
 11
139.8114054589528
 21
784.1625702980463
 31
0.0
  0
LINE
  5
34C
330
71
100
AcDbEntity
  8
1
  6
Continuous
 62
     6
100
AcDbLine
 10
125.8562099857028
 20
779.9125702980464
 30
0.0
 11
75.85620998570255
 21
779.9125702980464
 31
0.0
  0
LINE
  5
34D
330
71
100
AcDbEntity
  8
1
  6
Continuous
 62
     6
100
AcDbLine
 10
23.55620998570254
 20
779.9125702980463
 30
0.0
 11
25.85620998570278
 21
779.9125702980464
 31
0.0
  0
LINE
  5
34E
330
71
100
AcDbEntity
  8
1
  6
Continuous
 62
     6
100
AcDbLine
 10
176.2114054589527
 20
779.9125702980463
 30
0.0
 11
225.8562099857028
 21
779.9125702980464
 31
0.0
  0
LINE
  5
34F
330
71
100
AcDbEntity
  8
1
  6
Continuous
 62
     6
100
AcDbLine
 10
269.3562099857028
 20
779.9125702980464
 30
0.0
 11
269.356209985704
 21
788.4125702980464
 31
0.0
  0
LINE
  5
350
330
71
100
AcDbEntity
  8
1
  6
Continuous
 62
     2
100
AcDbLine
 10
-22.64379001429631
 20
779.9125702980464
 30
0.0
 11
-22.64379001429631
 21
774.9125702980463
 31
0.0
  0
LINE
  5
351
330
71
100
AcDbEntity
  8
1
  6
Continuous
 62
     2
100
AcDbLine
 10
-17.64379001429535
 20
779.9125702980464
 30
0.0
 11
-22.64379001429631
 21
779.9125702980464
 31
0.0
  0
LINE
  5
352
330
71
100
AcDbEntity
  8
1
  6
Continuous
 62
     2
100
AcDbLine
 10
-17.64379001429535
 20
774.9125702980463
 30
0.0
 11
25.85620998570278
 21
774.9125702980463
 31
0.0
  0
LINE
  5
353
330
71
100
AcDbEntity
  8
1
  6
Continuous
 62
     2
100
AcDbLine
 10
-17.64379001429535
 20
779.9125702980464
 30
0.0
 11
-17.64379001429535
 21
774.9125702980463
 31
0.0
  0
LINE
  5
354
330
71
100
AcDbEntity
  8
1
  6
Continuous
 62
     2
100
AcDbLine
 10
225.8562099857028
 20
774.9125702980463
 30
0.0
 11
175.8562099857028
 21
774.9125702980463
 31
0.0
  0
LINE
  5
355
330
71
100
AcDbEntity
  8
1
  6
Continuous
 62
     2
100
AcDbLine
 10
225.8562099857028
 20
774.9125702980463
 30
0.0
 11
225.8562099857028
 21
779.9125702980464
 31
0.0
  0
LINE
  5
356
330
71
100
AcDbEntity
  8
1
  6
Continuous
 62
     2
100
AcDbLine
 10
175.8562099857028
 20
774.9125702980463
 30
0.0
 11
175.8562099857028
 21
779.9125702980464
 31
0.0
  0
LINE
  5
357
330
71
100
AcDbEntity
  8
1
  6
Continuous
 62
     2
100
AcDbLine
 10
125.8562099857028
 20
774.9125702980463
 30
0.0
 11
175.8562099857028
 21
774.9125702980463
 31
0.0
  0
LINE
  5
358
330
71
100
AcDbEntity
  8
1
  6
Continuous
 62
     2
100
AcDbLine
 10
125.8562099857028
 20
774.9125702980463
 30
0.0
 11
125.8562099857028
 21
779.9125702980464
 31
0.0
  0
LINE
  5
359
330
71
100
AcDbEntity
  8
1
  6
Continuous
 62
     2
100
AcDbLine
 10
75.85620998570255
 20
774.9125702980463
 30
0.0
 11
125.8562099857028
 21
774.9125702980463
 31
0.0
  0
LINE
  5
35A
330
71
100
AcDbEntity
  8
1
  6
Continuous
 62
     2
100
AcDbLine
 10
75.85620998570255
 20
774.9125702980463
 30
0.0
 11
75.85620998570255
 21
779.9125702980464
 31
0.0
  0
LINE
  5
35B
330
71
100
AcDbEntity
  8
1
  6
Continuous
 62
     2
100
AcDbLine
 10
25.85620998570278
 20
774.9125702980463
 30
0.0
 11
75.85620998570255
 21
774.9125702980463
 31
0.0
  0
LINE
  5
35C
330
71
100
AcDbEntity
  8
1
  6
Continuous
 62
     2
100
AcDbLine
 10
25.85620998570278
 20
774.9125702980463
 30
0.0
 11
25.85620998570278
 21
779.9125702980464
 31
0.0
  0
LINE
  5
35D
330
71
100
AcDbEntity
  8
1
  6
Continuous
 62
     6
100
AcDbLine
 10
-17.64379001429552
 20
829.9125702980465
 30
0.0
 11
-17.64379001429535
 21
779.9125702980464
 31
0.0
  0
LINE
  5
35E
330
71
100
AcDbEntity
  8
1
  6
Continuous
 62
     2
100
AcDbLine
 10
-22.64379001429631
 20
829.9125702980465
 30
0.0
 11
-22.64379001429631
 21
779.9125702980464
 31
0.0
  0
LINE
  5
35F
330
71
100
AcDbEntity
  8
1
  6
Continuous
 62
     2
100
AcDbLine
 10
-22.64379001429631
 20
829.9125702980465
 30
0.0
 11
-17.64379001429552
 21
829.9125702980465
 31
0.0
  0
LINE
  5
360
330
71
100
AcDbEntity
  8
1
  6
Continuous
 62
     6
100
AcDbLine
 10
-17.64379001429575
 20
879.9125702980463
 30
0.0
 11
-17.64379001429552
 21
829.9125702980465
 31
0.0
  0
LINE
  5
361
330
71
100
AcDbEntity
  8
1
  6
Continuous
 62
     2
100
AcDbLine
 10
-22.64379001429631
 20
879.9125702980463
 30
0.0
 11
-22.64379001429631
 21
829.9125702980465
 31
0.0
  0
LINE
  5
362
330
71
100
AcDbEntity
  8
1
  6
Continuous
 62
     2
100
AcDbLine
 10
-22.64379001429631
 20
879.9125702980463
 30
0.0
 11
-17.64379001429575
 21
879.9125702980463
 31
0.0
  0
LINE
  5
363
330
71
100
AcDbEntity
  8
1
  6
Continuous
 62
     6
100
AcDbLine
 10
-17.64379001429626
 20
929.9125702980464
 30
0.0
 11
-17.64379001429575
 21
879.9125702980463
 31
0.0
  0
LINE
  5
364
330
71
100
AcDbEntity
  8
1
  6
Continuous
 62
     2
100
AcDbLine
 10
-22.64379001429631
 20
929.9125702980464
 30
0.0
 11
-22.64379001429631
 21
879.9125702980463
 31
0.0
  0
LINE
  5
365
330
71
100
AcDbEntity
  8
1
  6
Continuous
 62
     2
100
AcDbLine
 10
-22.64379001429631
 20
929.9125702980464
 30
0.0
 11
-17.64379001429626
 21
929.9125702980464
 31
0.0
  0
LINE
  5
366
330
71
100
AcDbEntity
  8
1
  6
Continuous
 62
     6
100
AcDbLine
 10
-17.64379001429631
 20
964.9125702980464
 30
0.0
 11
-17.64379001429626
 21
929.9125702980464
 31
0.0
  0
LINE
  5
367
330
71
100
AcDbEntity
  8
1
  6
Continuous
 62
     2
100
AcDbLine
 10
-22.64379001429631
 20
984.9125702980464
 30
0.0
 11
-22.64379001429631
 21
929.9125702980464
 31
0.0
  0
LINE
  5
368
330
71
100
AcDbEntity
  8
1
  6
Continuous
 62
     2
100
AcDbLine
 10
-22.64379001429631
 20
774.9125702980463
 30
0.0
 11
-17.64379001429535
 21
774.9125702980463
 31
0.0
  0
LINE
  5
369
330
71
100
AcDbEntity
  8
1
  6
Continuous
 62
     2
100
AcDbLine
 10
125.8562099857028
 20
984.9125702980464
 30
0.0
 11
125.8562099857028
 21
975.703878453345
 31
0.0
  0
LINE
  5
36A
330
71
100
AcDbEntity
  8
1
  6
Continuous
 62
     2
100
AcDbLine
 10
125.8562099857028
 20
984.9125702980464
 30
0.0
 11
-22.64379001429631
 21
984.9125702980464
 31
0.0
  0
LINE
  5
36B
330
71
100
AcDbEntity
  8
1
  6
Continuous
 62
     2
100
AcDbLine
 10
274.3562099857018
 20
779.9125702980464
 30
0.0
 11
274.3562099857018
 21
829.9125702980465
 31
0.0
  0
LINE
  5
36C
330
71
100
AcDbEntity
  8
1
  6
Continuous
 62
     2
100
AcDbLine
 10
274.3562099857018
 20
929.9125702980464
 30
0.0
 11
274.3562099857018
 21
984.9125702980464
 31
0.0
  0
LINE
  5
36D
330
71
100
AcDbEntity
  8
1
  6
Continuous
 62
     6
100
AcDbLine
 10
269.356209985702
 20
929.9125702980464
 30
0.0
 11
269.3562099857018
 21
964.9125702980464
 31
0.0
  0
LINE
  5
36E
330
71
100
AcDbEntity
  8
1
  6
Continuous
 62
     2
100
AcDbLine
 10
269.356209985702
 20
929.9125702980464
 30
0.0
 11
274.3562099857018
 21
929.9125702980464
 31
0.0
  0
LINE
  5
36F
330
71
100
AcDbEntity
  8
1
  6
Continuous
 62
     2
100
AcDbLine
 10
274.3562099857018
 20
879.9125702980463
 30
0.0
 11
274.3562099857018
 21
929.9125702980464
 31
0.0
  0
LINE
  5
370
330
71
100
AcDbEntity
  8
1
  6
Continuous
 62
     6
100
AcDbLine
 10
269.3562099857032
 20
879.9125702980463
 30
0.0
 11
269.356209985702
 21
929.9125702980464
 31
0.0
  0
LINE
  5
371
330
71
100
AcDbEntity
  8
1
  6
Continuous
 62
     2
100
AcDbLine
 10
269.3562099857032
 20
879.9125702980463
 30
0.0
 11
274.3562099857018
 21
879.9125702980463
 31
0.0
  0
LINE
  5
372
330
71
100
AcDbEntity
  8
1
  6
Continuous
 62
     2
100
AcDbLine
 10
274.3562099857018
 20
829.9125702980465
 30
0.0
 11
274.3562099857018
 21
879.9125702980463
 31
0.0
  0
LINE
  5
373
330
71
100
AcDbEntity
  8
1
  6
Continuous
 62
     6
100
AcDbLine
 10
269.3562099857037
 20
829.9125702980465
 30
0.0
 11
269.3562099857032
 21
879.9125702980463
 31
0.0
  0
LINE
  5
374
330
71
100
AcDbEntity
  8
1
  6
Continuous
 62
     2
100
AcDbLine
 10
269.3562099857037
 20
829.9125702980465
 30
0.0
 11
274.3562099857018
 21
829.9125702980465
 31
0.0
  0
LINE
  5
375
330
71
100
AcDbEntity
  8
1
  6
Continuous
 62
     6
100
AcDbLine
 10
269.3562099857018
 20
964.9125702980464
 30
0.0
 11
-17.64379001429631
 21
964.9125702980464
 31
0.0
  0
LINE
  5
376
330
71
100
AcDbEntity
  8
1
  6
Continuous
 62
     2
100
AcDbLine
 10
274.3562099857018
 20
984.9125702980464
 30
0.0
 11
125.8562099857028
 21
984.9125702980464
 31
0.0
  0
LINE
  5
377
330
71
100
AcDbEntity
  8
1
  6
Continuous
 62
     6
100
AcDbLine
 10
269.3562099857045
 20
796.9125702980464
 30
0.0
 11
269.3562099857037
 21
829.9125702980465
 31
0.0
  0
LINE
  5
378
330
71
100
AcDbEntity
  8
1
  6
Continuous
 62
     2
100
AcDbLine
 10
269.3562099857028
 20
774.9125702980463
 30
0.0
 11
225.8562099857028
 21
774.9125702980463
 31
0.0
  0
LINE
  5
379
330
71
100
AcDbEntity
  8
1
  6
Continuous
 62
     2
100
AcDbLine
 10
274.3562099857018
 20
774.9125702980463
 30
0.0
 11
269.3562099857028
 21
774.9125702980463
 31
0.0
  0
LINE
  5
37A
330
71
100
AcDbEntity
  8
1
  6
Continuous
 62
     2
100
AcDbLine
 10
274.3562099857018
 20
774.9125702980463
 30
0.0
 11
274.3562099857018
 21
779.9125702980464
 31
0.0
  0
LINE
  5
37B
330
71
100
AcDbEntity
  8
1
  6
Continuous
 62
     6
100
AcDbLine
 10
139.8114054589528
 20
796.9125702980464
 30
0.0
 11
176.2114054589527
 21
796.9125702980464
 31
0.0
  0
LINE
  5
37C
330
71
100
AcDbEntity
  8
1
  6
Continuous
 62
     2
100
AcDbLine
 10
269.3562099857028
 20
779.9125702980464
 30
0.0
 11
269.3562099857028
 21
774.9125702980463
 31
0.0
  0
LINE
  5
37D
330
71
100
AcDbEntity
  8
1
  6
Continuous
 62
     2
100
AcDbLine
 10
269.3562099857028
 20
779.9125702980464
 30
0.0
 11
274.3562099857018
 21
779.9125702980464
 31
0.0
  0
LINE
  5
37E
330
71
100
AcDbEntity
  8
1
  6
Continuous
 62
     6
100
AcDbLine
 10
175.8562099857028
 20
779.9125702980464
 30
0.0
 11
158.0114054589528
 21
779.9125702980464
 31
0.0
  0
LINE
  5
37F
330
71
100
AcDbEntity
  8
1
  6
Continuous
 62
     6
100
AcDbLine
 10
225.8562099857028
 20
779.9125702980464
 30
0.0
 11
269.3562099857028
 21
779.9125702980464
 31
0.0
  0
LINE
  5
380
330
71
100
AcDbEntity
  8
1
  6
Continuous
 62
     6
100
AcDbLine
 10
75.85620998570255
 20
779.9125702980464
 30
0.0
 11
70.81140545895278
 21
779.9125702980464
 31
0.0
  0
LINE
  5
381
330
71
100
AcDbEntity
  8
1
  6
Continuous
 62
     6
100
AcDbLine
 10
125.8562099857028
 20
779.9125702980464
 30
0.0
 11
139.8114054589528
 21
779.9125702980463
 31
0.0
  0
LINE
  5
382
102
{ACAD_REACTORS
330
46C
330
46D
102
}
330
71
100
AcDbEntity
  8
0
  6
Continuous
 62
     2
100
AcDbLine
 10
147.3260314010996
 20
791.9850850542584
 30
0.0
 11
147.3260314010996
 21
792.5906203427653
 31
0.0
  0
LINE
  5
383
102
{ACAD_REACTORS
330
46C
330
46D
102
}
330
71
100
AcDbEntity
  8
0
  6
Continuous
 62
     2
100
AcDbLine
 10
147.3260314010996
 20
789.1849504476272
 30
0.0
 11
147.3260314010996
 21
789.7668018543222
 31
0.0
  0
LINE
  5
384
102
{ACAD_REACTORS
330
46E
330
46F
102
}
330
71
100
AcDbEntity
  8
0
  6
Continuous
 62
     2
100
AcDbLine
 10
169.9555178365788
 20
789.4746145157502
 30
0.0
 11
169.9555178365788
 21
787.2060702980627
 31
0.0
  0
LINE
  5
385
102
{ACAD_REACTORS
330
46E
330
46F
102
}
330
71
100
AcDbEntity
  8
0
  6
Continuous
 62
     2
100
AcDbLine
 10
168.5744640575912
 20
790.2598798218733
 30
0.0
 11
171.9594095762199
 21
790.2598798218737
 31
0.0
  0
LINE
  5
386
102
{ACAD_REACTORS
330
46E
330
46F
102
}
330
71
100
AcDbEntity
  8
0
  6
Continuous
 62
     2
100
AcDbLine
 10
171.9594095762199
 20
789.4746145157502
 30
0.0
 11
171.9594095762199
 21
790.2598798218737
 31
0.0
  0
LINE
  5
387
102
{ACAD_REACTORS
330
46E
330
46F
102
}
330
71
100
AcDbEntity
  8
0
  6
Continuous
 62
     2
100
AcDbLine
 10
171.1483105387465
 20
789.4746145157502
 30
0.0
 11
171.9594095762199
 21
789.4746145157502
 31
0.0
  0
LINE
  5
388
102
{ACAD_REACTORS
330
46E
330
46F
102
}
330
71
100
AcDbEntity
  8
0
  6
Continuous
 62
     2
100
AcDbLine
 10
171.1483105387465
 20
787.2060702980627
 30
0.0
 11
171.1483105387465
 21
789.4746145157502
 31
0.0
  0
LINE
  5
389
102
{ACAD_REACTORS
330
46E
330
46F
102
}
330
71
100
AcDbEntity
  8
0
  6
Continuous
 62
     2
100
AcDbLine
 10
169.9555178365788
 20
787.2060702980627
 30
0.0
 11
171.1483105387465
 21
787.2060702980627
 31
0.0
  0
LINE
  5
38A
102
{ACAD_REACTORS
330
464
330
465
102
}
330
71
100
AcDbEntity
  8
0
  6
Continuous
 62
     2
100
AcDbLine
 10
169.2589268985143
 20
793.6190702980482
 30
0.0
 11
167.856202680765
 21
793.6190702980482
 31
0.0
  0
LINE
  5
38B
102
{ACAD_REACTORS
330
464
330
465
102
}
330
71
100
AcDbEntity
  8
0
  6
Continuous
 62
     2
100
AcDbLine
 10
169.2589268985143
 20
793.6190702980482
 30
0.0
 11
169.8600944204061
 21
792.9392469764927
 31
0.0
  0
LINE
  5
38C
102
{ACAD_REACTORS
330
464
330
465
102
}
330
71
100
AcDbEntity
  8
0
  6
Continuous
 62
     2
100
AcDbLine
 10
169.8600944204061
 20
792.9392469764927
 30
0.0
 11
170.4612619422989
 21
793.6190702980482
 31
0.0
  0
LINE
  5
38D
102
{ACAD_REACTORS
330
464
330
465
102
}
330
71
100
AcDbEntity
  8
0
  6
Continuous
 62
     2
100
AcDbLine
 10
170.5614565292796
 20
792.146119768012
 30
0.0
 11
171.8639861600461
 21
793.6190702980482
 31
0.0
  0
LINE
  5
38E
102
{ACAD_REACTORS
330
464
330
465
102
}
330
71
100
AcDbEntity
  8
0
  6
Continuous
 62
     2
100
AcDbLine
 10
170.5614565292796
 20
792.146119768012
 30
0.0
 11
171.9594095762199
 21
790.565260774237
 31
0.0
  0
LINE
  5
38F
102
{ACAD_REACTORS
330
464
330
465
102
}
330
71
100
AcDbEntity
  8
0
  6
Continuous
 62
     2
100
AcDbLine
 10
170.5566853584716
 20
790.565260774237
 30
0.0
 11
171.9594095762199
 21
790.565260774237
 31
0.0
  0
LINE
  5
390
102
{ACAD_REACTORS
330
464
330
465
102
}
330
71
100
AcDbEntity
  8
0
  6
Continuous
 62
     2
100
AcDbLine
 10
169.8600944204061
 20
791.3529925595307
 30
0.0
 11
170.5566853584716
 21
790.565260774237
 31
0.0
  0
LINE
  5
391
102
{ACAD_REACTORS
330
462
330
463
102
}
330
71
100
AcDbEntity
  8
0
  6
Continuous
 62
     2
100
AcDbLine
 10
166.4009955841224
 20
793.6190702980482
 30
0.0
 11
167.6414999943753
 21
793.6190702980482
 31
0.0
  0
LINE
  5
392
102
{ACAD_REACTORS
330
462
330
463
102
}
330
71
100
AcDbEntity
  8
0
  6
Continuous
 62
     2
100
AcDbLine
 10
167.6414999943753
 20
793.6190702980482
 30
0.0
 11
167.6414999943753
 21
790.565260774237
 31
0.0
  0
LINE
  5
393
102
{ACAD_REACTORS
330
462
330
463
102
}
330
71
100
AcDbEntity
  8
0
  6
Continuous
 62
     2
100
AcDbLine
 10
166.4009955841224
 20
790.565260774237
 30
0.0
 11
166.4009955841224
 21
793.6190702980482
 31
0.0
  0
LINE
  5
394
102
{ACAD_REACTORS
330
460
330
461
102
}
330
71
100
AcDbEntity
  8
0
  6
Continuous
 62
     2
100
AcDbLine
 10
164.9326855015848
 20
788.4275941075872
 30
0.0
 11
165.2328507387772
 21
789.1954090735738
 31
0.0
  0
LINE
  5
395
102
{ACAD_REACTORS
330
460
330
461
102
}
330
71
100
AcDbEntity
  8
0
  6
Continuous
 62
     2
100
AcDbLine
 10
164.455149896964
 20
787.2060702980627
 30
0.0
 11
164.6666299504398
 21
787.7470308422805
 31
0.0
  0
LINE
  5
396
102
{ACAD_REACTORS
330
460
330
461
102
}
330
71
100
AcDbEntity
  8
0
  6
Continuous
 62
     2
100
AcDbLine
 10
164.6125985336503
 20
790.2598798218737
 30
0.0
 11
163.214645486711
 21
787.2060702980627
 31
0.0
  0
LINE
  5
397
102
{ACAD_REACTORS
330
460
330
461
102
}
330
71
100
AcDbEntity
  8
0
  6
Continuous
 62
     2
100
AcDbLine
 10
167.2510559908433
 20
787.2060702980627
 30
0.0
 11
166.0105515805894
 21
787.2060702980627
 31
0.0
  0
LINE
  5
398
102
{ACAD_REACTORS
330
460
330
461
102
}
330
71
100
AcDbEntity
  8
0
  6
Continuous
 62
     2
100
AcDbLine
 10
164.6666299504398
 20
787.7470308422805
 30
0.0
 11
165.7990715271136
 21
787.7470308422805
 31
0.0
  0
LINE
  5
399
102
{ACAD_REACTORS
330
45E
330
45F
102
}
330
71
100
AcDbEntity
  8
0
  6
Continuous
 62
     2
100
AcDbLine
 10
161.0571333475288
 20
789.4746145157502
 30
0.0
 11
161.8682323850034
 21
789.4746145157502
 31
0.0
  0
LINE
  5
39A
102
{ACAD_REACTORS
330
45E
330
45F
102
}
330
71
100
AcDbEntity
  8
0
  6
Continuous
 62
     2
100
AcDbLine
 10
163.8721241246424
 20
790.2598798218737
 30
0.0
 11
161.0571333475288
 21
790.2598798218737
 31
0.0
  0
LINE
  5
39B
102
{ACAD_REACTORS
330
45E
330
45F
102
}
330
71
100
AcDbEntity
  8
0
  6
Continuous
 62
     2
100
AcDbLine
 10
163.8721241246424
 20
789.4746145157502
 30
0.0
 11
163.8721241246424
 21
790.2598798218737
 31
0.0
  0
LINE
  5
39C
102
{ACAD_REACTORS
330
45E
330
45F
102
}
330
71
100
AcDbEntity
  8
0
  6
Continuous
 62
     2
100
AcDbLine
 10
163.0610250871699
 20
789.4746145157502
 30
0.0
 11
163.8721241246424
 21
789.4746145157502
 31
0.0
  0
LINE
  5
39D
102
{ACAD_REACTORS
330
45E
330
45F
102
}
330
71
100
AcDbEntity
  8
0
  6
Continuous
 62
     2
100
AcDbLine
 10
163.0610250871699
 20
787.2060702980627
 30
0.0
 11
163.0610250871699
 21
789.4746145157502
 31
0.0
  0
LINE
  5
39E
102
{ACAD_REACTORS
330
45C
330
45D
102
}
330
71
100
AcDbEntity
  8
0
  6
Continuous
 62
     2
100
AcDbLine
 10
163.7291399312679
 20
790.565260774237
 30
0.0
 11
163.7291399312679
 21
791.8740362844417
 31
0.0
  0
LINE
  5
39F
102
{ACAD_REACTORS
330
45C
330
45D
102
}
330
71
100
AcDbEntity
  8
0
  6
Continuous
 62
     2
100
AcDbLine
 10
162.5363472291014
 20
793.6190702980482
 30
0.0
 11
162.5363472291014
 21
790.565260774237
 31
0.0
  0
LINE
  5
3A0
102
{ACAD_REACTORS
330
45C
330
45D
102
}
330
71
100
AcDbEntity
  8
0
  6
Continuous
 62
     2
100
AcDbLine
 10
163.7291399312679
 20
793.6190702980482
 30
0.0
 11
162.5363472291014
 21
793.6190702980482
 31
0.0
  0
LINE
  5
3A1
102
{ACAD_REACTORS
330
45C
330
45D
102
}
330
71
100
AcDbEntity
  8
0
  6
Continuous
 62
     2
100
AcDbLine
 10
164.9696443415219
 20
793.6190702980482
 30
0.0
 11
164.9696443415219
 21
792.310294787843
 31
0.0
  0
LINE
  5
3A2
102
{ACAD_REACTORS
330
45A
330
45B
102
}
330
71
100
AcDbEntity
  8
0
  6
Continuous
 62
     2
100
AcDbLine
 10
157.2879084086817
 20
790.2598798218737
 30
0.0
 11
157.2879084086817
 21
787.2060702980627
 31
0.0
  0
LINE
  5
3A3
102
{ACAD_REACTORS
330
45A
330
45B
102
}
330
71
100
AcDbEntity
  8
0
  6
Continuous
 62
     2
100
AcDbLine
 10
158.4807011108493
 20
790.2598798218737
 30
0.0
 11
157.2879084086817
 21
790.2598798218737
 31
0.0
  0
LINE
  5
3A4
102
{ACAD_REACTORS
330
45A
330
45B
102
}
330
71
100
AcDbEntity
  8
0
  6
Continuous
 62
     2
100
AcDbLine
 10
159.7212055211022
 20
787.2060702980627
 30
0.0
 11
160.9139982232686
 21
787.2060702980627
 31
0.0
  0
LINE
  5
3A5
102
{ACAD_REACTORS
330
45A
330
45B
102
}
330
71
100
AcDbEntity
  8
0
  6
Continuous
 62
     2
100
AcDbLine
 10
157.2879084086817
 20
787.2060702980627
 30
0.0
 11
158.4807011108493
 21
787.2060702980627
 31
0.0
  0
LINE
  5
3A6
102
{ACAD_REACTORS
330
46A
330
46B
102
}
330
71
100
AcDbEntity
  8
0
  6
Continuous
 62
     2
100
AcDbLine
 10
160.9618608622408
 20
792.4411723388635
 30
0.0
 11
160.9618608622408
 21
792.9210566926051
 31
0.0
  0
LINE
  5
3A7
102
{ACAD_REACTORS
330
46A
330
46B
102
}
330
71
100
AcDbEntity
  8
0
  6
Continuous
 62
     2
100
AcDbLine
 10
162.2977886886685
 20
792.4411723388635
 30
0.0
 11
160.9618608622408
 21
792.4411723388635
 31
0.0
  0
LINE
  5
3A8
102
{ACAD_REACTORS
330
46A
330
46B
102
}
330
71
100
AcDbEntity
  8
0
  6
Continuous
 62
     2
100
AcDbLine
 10
162.2977886886685
 20
791.7431587334212
 30
0.0
 11
162.2977886886685
 21
792.4411723388635
 31
0.0
  0
LINE
  5
3A9
102
{ACAD_REACTORS
330
46A
330
46B
102
}
330
71
100
AcDbEntity
  8
0
  6
Continuous
 62
     2
100
AcDbLine
 10
160.9618608622408
 20
791.7431587334212
 30
0.0
 11
162.2977886886685
 21
791.7431587334212
 31
0.0
  0
LINE
  5
3AA
102
{ACAD_REACTORS
330
458
330
459
102
}
330
71
100
AcDbEntity
  8
0
  6
Continuous
 62
     2
100
AcDbLine
 10
157.4789061719139
 20
793.6190702980482
 30
0.0
 11
157.4789061719139
 21
790.565260774237
 31
0.0
  0
LINE
  5
3AB
102
{ACAD_REACTORS
330
458
330
459
102
}
330
71
100
AcDbEntity
  8
0
  6
Continuous
 62
     2
100
AcDbLine
 10
157.4789061719139
 20
790.565260774237
 30
0.0
 11
156.2861134697475
 21
790.565260774237
 31
0.0
  0
LINE
  5
3AC
102
{ACAD_REACTORS
330
458
330
459
102
}
330
71
100
AcDbEntity
  8
0
  6
Continuous
 62
     2
100
AcDbLine
 10
156.2861134697475
 20
790.565260774237
 30
0.0
 11
156.2861134697475
 21
791.6995328830808
 31
0.0
  0
LINE
  5
3AD
102
{ACAD_REACTORS
330
458
330
459
102
}
330
71
100
AcDbEntity
  8
0
  6
Continuous
 62
     2
100
AcDbLine
 10
155.23645589184
 20
790.565260774237
 30
0.0
 11
154.0436631896734
 21
790.565260774237
 31
0.0
  0
LINE
  5
3AE
102
{ACAD_REACTORS
330
458
330
459
102
}
330
71
100
AcDbEntity
  8
0
  6
Continuous
 62
     2
100
AcDbLine
 10
154.0436631896734
 20
793.6190702980482
 30
0.0
 11
155.23645589184
 21
793.6190702980482
 31
0.0
  0
LINE
  5
3AF
102
{ACAD_REACTORS
330
458
330
459
102
}
330
71
100
AcDbEntity
  8
0
  6
Continuous
 62
     2
100
AcDbLine
 10
155.23645589184
 20
793.6190702980482
 30
0.0
 11
155.23645589184
 21
792.5502369647136
 31
0.0
  0
LINE
  5
3B0
102
{ACAD_REACTORS
330
458
330
459
102
}
330
71
100
AcDbEntity
  8
0
  6
Continuous
 62
     2
100
AcDbLine
 10
155.23645589184
 20
792.5502369647136
 30
0.0
 11
156.2861134697475
 21
792.5502369647136
 31
0.0
  0
LINE
  5
3B1
102
{ACAD_REACTORS
330
466
330
467
102
}
330
71
100
AcDbEntity
  8
0
  6
Continuous
 62
     2
100
AcDbLine
 10
152.0874831581198
 20
792.9559644526081
 30
0.0
 11
152.4047782196617
 21
792.9559644526081
 31
0.0
  0
LINE
  5
3B2
102
{ACAD_REACTORS
330
466
330
467
102
}
330
71
100
AcDbEntity
  8
0
  6
Continuous
 62
     2
100
AcDbLine
 10
152.0874831581198
 20
792.2502368032658
 30
0.0
 11
152.4047782196617
 21
792.2502368032658
 31
0.0
  0
LINE
  5
3B3
102
{ACAD_REACTORS
330
466
330
467
102
}
330
71
100
AcDbEntity
  8
0
  6
Continuous
 62
     2
100
AcDbLine
 10
150.8469787478657
 20
793.6190702980482
 30
0.0
 11
150.8469787478657
 21
790.565260774237
 31
0.0
  0
LINE
  5
3B4
102
{ACAD_REACTORS
330
466
330
467
102
}
330
71
100
AcDbEntity
  8
0
  6
Continuous
 62
     2
100
AcDbLine
 10
150.8469787478657
 20
793.6190702980482
 30
0.0
 11
152.8462507459001
 21
793.6190702980482
 31
0.0
  0
LINE
  5
3B5
102
{ACAD_REACTORS
330
466
330
467
102
}
330
71
100
AcDbEntity
  8
0
  6
Continuous
 62
     2
100
AcDbLine
 10
152.0874831581198
 20
791.5083390153808
 30
0.0
 11
152.8462507459001
 21
791.5083390153808
 31
0.0
  0
LINE
  5
3B6
102
{ACAD_REACTORS
330
46C
330
46D
102
}
330
71
100
AcDbEntity
  8
0
  6
Continuous
 62
     2
100
AcDbLine
 10
144.750482714569
 20
792.5907978194134
 30
0.0
 11
144.750482714569
 21
788.2343427766963
 31
0.0
  0
LINE
  5
3B7
102
{ACAD_REACTORS
330
46C
330
46D
102
}
330
71
100
AcDbEntity
  8
0
  6
Continuous
 62
     2
100
AcDbLine
 10
145.0661996376446
 20
792.9065147424895
 30
0.0
 11
146.5420328986543
 21
792.9065147424895
 31
0.0
  0
LINE
  5
3B8
102
{ACAD_REACTORS
330
46C
330
46D
102
}
330
71
100
AcDbEntity
  8
0
  6
Continuous
 62
     2
100
AcDbLine
 10
146.8577498217309
 20
791.9867732003529
 30
0.0
 11
146.8577498217309
 21
792.5907978194134
 31
0.0
  0
LINE
  5
3B9
102
{ACAD_REACTORS
330
46C
330
46D
102
}
330
71
100
AcDbEntity
  8
0
  6
Continuous
 62
     2
100
AcDbLine
 10
146.8577498217309
 20
788.2343427766963
 30
0.0
 11
146.8577498217309
 21
789.7651137082279
 31
0.0
  0
LINE
  5
3BA
102
{ACAD_REACTORS
330
46C
330
46D
102
}
330
71
100
AcDbEntity
  8
0
  6
Continuous
 62
     2
100
AcDbLine
 10
149.945617051615
 20
787.2060702980627
 30
0.0
 11
144.4723049608982
 21
787.2060702980627
 31
0.0
  0
LINE
  5
3BB
102
{ACAD_REACTORS
330
46C
330
46D
102
}
330
71
100
AcDbEntity
  8
0
  6
Continuous
 62
     2
100
AcDbLine
 10
150.3698616669988
 20
793.1948256826462
 30
0.0
 11
150.3698616669988
 21
787.630314913446
 31
0.0
  0
LINE
  5
3BC
102
{ACAD_REACTORS
330
46C
330
46D
102
}
330
71
100
AcDbEntity
  8
0
  6
Continuous
 62
     2
100
AcDbLine
 10
144.4723049608982
 20
793.61907029803
 30
0.0
 11
149.945617051615
 21
793.61907029803
 31
0.0
  0
LINE
  5
3BD
102
{ACAD_REACTORS
330
46C
330
46D
102
}
330
71
100
AcDbEntity
  8
0
  6
Continuous
 62
     2
100
AcDbLine
 10
144.0480603455154
 20
793.1948256826462
 30
0.0
 11
144.0480603455154
 21
787.630314913446
 31
0.0
  0
LINE
  5
3BE
102
{ACAD_REACTORS
330
46C
330
46D
102
}
330
71
100
AcDbEntity
  8
0
  6
Continuous
 62
     2
100
AcDbLine
 10
146.5420328986543
 20
787.9186258536196
 30
0.0
 11
145.0661996376446
 21
787.9186258536196
 31
0.0
  0
LINE
  5
3BF
102
{ACAD_REACTORS
330
466
330
467
102
}
330
71
100
AcDbEntity
  8
0
  6
Continuous
 62
     2
100
AcDbLine
 10
152.0874831581198
 20
790.565260774237
 30
0.0
 11
152.0874831581198
 21
791.5083390153808
 31
0.0
  0
LINE
  5
3C0
102
{ACAD_REACTORS
330
466
330
467
102
}
330
71
100
AcDbEntity
  8
0
  6
Continuous
 62
     2
100
AcDbLine
 10
150.8469787478657
 20
790.565260774237
 30
0.0
 11
152.0874831581198
 21
790.565260774237
 31
0.0
  0
LINE
  5
3C1
102
{ACAD_REACTORS
330
466
330
467
102
}
330
71
100
AcDbEntity
  8
0
  6
Continuous
 62
     2
100
AcDbLine
 10
152.0874831581198
 20
792.2502368032658
 30
0.0
 11
152.0874831581198
 21
792.9559644526081
 31
0.0
  0
LINE
  5
3C2
102
{ACAD_REACTORS
330
458
330
459
102
}
330
71
100
AcDbEntity
  8
0
  6
Continuous
 62
     2
100
AcDbLine
 10
154.0436631896734
 20
793.6190702980482
 30
0.0
 11
154.0436631896734
 21
790.565260774237
 31
0.0
  0
LINE
  5
3C3
102
{ACAD_REACTORS
330
458
330
459
102
}
330
71
100
AcDbEntity
  8
0
  6
Continuous
 62
     2
100
AcDbLine
 10
155.23645589184
 20
791.6995328830808
 30
0.0
 11
155.23645589184
 21
790.565260774237
 31
0.0
  0
LINE
  5
3C4
102
{ACAD_REACTORS
330
458
330
459
102
}
330
71
100
AcDbEntity
  8
0
  6
Continuous
 62
     2
100
AcDbLine
 10
156.2861134697475
 20
791.6995328830808
 30
0.0
 11
155.23645589184
 21
791.6995328830808
 31
0.0
  0
LINE
  5
3C5
102
{ACAD_REACTORS
330
458
330
459
102
}
330
71
100
AcDbEntity
  8
0
  6
Continuous
 62
     2
100
AcDbLine
 10
156.2861134697475
 20
793.6190702980482
 30
0.0
 11
157.4789061719139
 21
793.6190702980482
 31
0.0
  0
LINE
  5
3C6
102
{ACAD_REACTORS
330
458
330
459
102
}
330
71
100
AcDbEntity
  8
0
  6
Continuous
 62
     2
100
AcDbLine
 10
156.2861134697475
 20
792.5502369647136
 30
0.0
 11
156.2861134697475
 21
793.6190702980482
 31
0.0
  0
LINE
  5
3C7
102
{ACAD_REACTORS
330
46A
330
46B
102
}
330
71
100
AcDbEntity
  8
0
  6
Continuous
 62
     2
100
AcDbLine
 10
162.2977886886685
 20
792.9210566926051
 30
0.0
 11
162.2977886886685
 21
793.6190702980482
 31
0.0
  0
LINE
  5
3C8
102
{ACAD_REACTORS
330
46A
330
46B
102
}
330
71
100
AcDbEntity
  8
0
  6
Continuous
 62
     2
100
AcDbLine
 10
159.1474689648875
 20
793.6190702980482
 30
0.0
 11
162.2977886886685
 21
793.6190702980482
 31
0.0
  0
LINE
  5
3C9
102
{ACAD_REACTORS
330
46A
330
46B
102
}
330
71
100
AcDbEntity
  8
0
  6
Continuous
 62
     2
100
AcDbLine
 10
159.1474689648875
 20
790.565260774237
 30
0.0
 11
162.2977886886685
 21
790.565260774237
 31
0.0
  0
LINE
  5
3CA
102
{ACAD_REACTORS
330
46A
330
46B
102
}
330
71
100
AcDbEntity
  8
0
  6
Continuous
 62
     2
100
AcDbLine
 10
162.2977886886685
 20
790.565260774237
 30
0.0
 11
162.2977886886685
 21
791.2632743796795
 31
0.0
  0
LINE
  5
3CB
102
{ACAD_REACTORS
330
46A
330
46B
102
}
330
71
100
AcDbEntity
  8
0
  6
Continuous
 62
     2
100
AcDbLine
 10
162.2977886886685
 20
791.2632743796795
 30
0.0
 11
160.9618608622408
 21
791.2632743796795
 31
0.0
  0
LINE
  5
3CC
102
{ACAD_REACTORS
330
46A
330
46B
102
}
330
71
100
AcDbEntity
  8
0
  6
Continuous
 62
     2
100
AcDbLine
 10
160.9618608622408
 20
791.2632743796795
 30
0.0
 11
160.9618608622408
 21
791.7431587334212
 31
0.0
  0
LINE
  5
3CD
102
{ACAD_REACTORS
330
46A
330
46B
102
}
330
71
100
AcDbEntity
  8
0
  6
Continuous
 62
     2
100
AcDbLine
 10
160.9618608622408
 20
792.9210566926051
 30
0.0
 11
162.2977886886685
 21
792.9210566926051
 31
0.0
  0
LINE
  5
3CE
102
{ACAD_REACTORS
330
45A
330
45B
102
}
330
71
100
AcDbEntity
  8
0
  6
Continuous
 62
     2
100
AcDbLine
 10
158.4807011108493
 20
787.2060702980627
 30
0.0
 11
158.4807011108493
 21
788.5148458082673
 31
0.0
  0
LINE
  5
3CF
102
{ACAD_REACTORS
330
45A
330
45B
102
}
330
71
100
AcDbEntity
  8
0
  6
Continuous
 62
     2
100
AcDbLine
 10
158.4807011108493
 20
788.5148458082673
 30
0.0
 11
159.7212055211022
 21
787.2060702980627
 31
0.0
  0
LINE
  5
3D0
102
{ACAD_REACTORS
330
45A
330
45B
102
}
330
71
100
AcDbEntity
  8
0
  6
Continuous
 62
     2
100
AcDbLine
 10
160.9139982232686
 20
787.2060702980627
 30
0.0
 11
160.9139982232686
 21
790.2598798218737
 31
0.0
  0
LINE
  5
3D1
102
{ACAD_REACTORS
330
45A
330
45B
102
}
330
71
100
AcDbEntity
  8
0
  6
Continuous
 62
     2
100
AcDbLine
 10
160.9139982232686
 20
790.2598798218737
 30
0.0
 11
159.7212055211022
 21
790.2598798218737
 31
0.0
  0
LINE
  5
3D2
102
{ACAD_REACTORS
330
45A
330
45B
102
}
330
71
100
AcDbEntity
  8
0
  6
Continuous
 62
     2
100
AcDbLine
 10
159.7212055211022
 20
790.2598798218737
 30
0.0
 11
159.7212055211022
 21
788.9511043116687
 31
0.0
  0
LINE
  5
3D3
102
{ACAD_REACTORS
330
45A
330
45B
102
}
330
71
100
AcDbEntity
  8
0
  6
Continuous
 62
     2
100
AcDbLine
 10
159.7212055211022
 20
788.9511043116687
 30
0.0
 11
158.4807011108493
 21
790.2598798218737
 31
0.0
  0
LINE
  5
3D4
102
{ACAD_REACTORS
330
45C
330
45D
102
}
330
71
100
AcDbEntity
  8
0
  6
Continuous
 62
     2
100
AcDbLine
 10
163.7291399312679
 20
791.8740362844417
 30
0.0
 11
164.9696443415219
 21
790.565260774237
 31
0.0
  0
LINE
  5
3D5
102
{ACAD_REACTORS
330
45C
330
45D
102
}
330
71
100
AcDbEntity
  8
0
  6
Continuous
 62
     2
100
AcDbLine
 10
164.9696443415219
 20
790.565260774237
 30
0.0
 11
166.1624370436885
 21
790.565260774237
 31
0.0
  0
LINE
  5
3D6
102
{ACAD_REACTORS
330
45C
330
45D
102
}
330
71
100
AcDbEntity
  8
0
  6
Continuous
 62
     2
100
AcDbLine
 10
166.1624370436885
 20
790.565260774237
 30
0.0
 11
166.1624370436885
 21
793.6190702980482
 31
0.0
  0
LINE
  5
3D7
102
{ACAD_REACTORS
330
45C
330
45D
102
}
330
71
100
AcDbEntity
  8
0
  6
Continuous
 62
     2
100
AcDbLine
 10
166.1624370436885
 20
793.6190702980482
 30
0.0
 11
164.9696443415219
 21
793.6190702980482
 31
0.0
  0
LINE
  5
3D8
102
{ACAD_REACTORS
330
45C
330
45D
102
}
330
71
100
AcDbEntity
  8
0
  6
Continuous
 62
     2
100
AcDbLine
 10
164.9696443415219
 20
792.310294787843
 30
0.0
 11
163.7291399312679
 21
793.6190702980482
 31
0.0
  0
LINE
  5
3D9
102
{ACAD_REACTORS
330
45C
330
45D
102
}
330
71
100
AcDbEntity
  8
0
  6
Continuous
 62
     2
100
AcDbLine
 10
162.5363472291014
 20
790.565260774237
 30
0.0
 11
163.7291399312679
 21
790.565260774237
 31
0.0
  0
LINE
  5
3DA
102
{ACAD_REACTORS
330
45E
330
45F
102
}
330
71
100
AcDbEntity
  8
0
  6
Continuous
 62
     2
100
AcDbLine
 10
161.0571333475288
 20
790.2598798218737
 30
0.0
 11
161.0571333475288
 21
789.4746145157502
 31
0.0
  0
LINE
  5
3DB
102
{ACAD_REACTORS
330
45E
330
45F
102
}
330
71
100
AcDbEntity
  8
0
  6
Continuous
 62
     2
100
AcDbLine
 10
161.8682323850034
 20
789.4746145157502
 30
0.0
 11
161.8682323850034
 21
787.2060702980627
 31
0.0
  0
LINE
  5
3DC
102
{ACAD_REACTORS
330
45E
330
45F
102
}
330
71
100
AcDbEntity
  8
0
  6
Continuous
 62
     2
100
AcDbLine
 10
161.8682323850034
 20
787.2060702980627
 30
0.0
 11
163.0610250871699
 21
787.2060702980627
 31
0.0
  0
LINE
  5
3DD
102
{ACAD_REACTORS
330
460
330
461
102
}
330
71
100
AcDbEntity
  8
0
  6
Continuous
 62
     2
100
AcDbLine
 10
166.0105515805894
 20
787.2060702980627
 30
0.0
 11
165.7990715271136
 21
787.7470308422805
 31
0.0
  0
LINE
  5
3DE
102
{ACAD_REACTORS
330
460
330
461
102
}
330
71
100
AcDbEntity
  8
0
  6
Continuous
 62
     2
100
AcDbLine
 10
165.853102943903
 20
790.2598798218737
 30
0.0
 11
167.2510559908433
 21
787.2060702980627
 31
0.0
  0
LINE
  5
3DF
102
{ACAD_REACTORS
330
460
330
461
102
}
330
71
100
AcDbEntity
  8
0
  6
Continuous
 62
     2
100
AcDbLine
 10
164.6125985336503
 20
790.2598798218737
 30
0.0
 11
165.853102943903
 21
790.2598798218737
 31
0.0
  0
LINE
  5
3E0
102
{ACAD_REACTORS
330
460
330
461
102
}
330
71
100
AcDbEntity
  8
0
  6
Continuous
 62
     2
100
AcDbLine
 10
163.214645486711
 20
787.2060702980627
 30
0.0
 11
164.455149896964
 21
787.2060702980627
 31
0.0
  0
LINE
  5
3E1
102
{ACAD_REACTORS
330
460
330
461
102
}
330
71
100
AcDbEntity
  8
0
  6
Continuous
 62
     2
100
AcDbLine
 10
164.9326855015848
 20
788.4275941075872
 30
0.0
 11
165.5330159759673
 21
788.4275941075872
 31
0.0
  0
LINE
  5
3E2
102
{ACAD_REACTORS
330
460
330
461
102
}
330
71
100
AcDbEntity
  8
0
  6
Continuous
 62
     2
100
AcDbLine
 10
165.5330159759673
 20
788.4275941075872
 30
0.0
 11
165.2328507387772
 21
789.1954090735738
 31
0.0
  0
LINE
  5
3E3
102
{ACAD_REACTORS
330
462
330
463
102
}
330
71
100
AcDbEntity
  8
0
  6
Continuous
 62
     2
100
AcDbLine
 10
167.6414999943753
 20
790.565260774237
 30
0.0
 11
166.4009955841224
 21
790.565260774237
 31
0.0
  0
LINE
  5
3E4
102
{ACAD_REACTORS
330
464
330
465
102
}
330
71
100
AcDbEntity
  8
0
  6
Continuous
 62
     2
100
AcDbLine
 10
169.1635034823404
 20
790.565260774237
 30
0.0
 11
167.7607792645921
 21
790.565260774237
 31
0.0
  0
LINE
  5
3E5
102
{ACAD_REACTORS
330
464
330
465
102
}
330
71
100
AcDbEntity
  8
0
  6
Continuous
 62
     2
100
AcDbLine
 10
169.1635034823404
 20
790.565260774237
 30
0.0
 11
169.8600944204061
 21
791.3529925595307
 31
0.0
  0
LINE
  5
3E6
102
{ACAD_REACTORS
330
464
330
465
102
}
330
71
100
AcDbEntity
  8
0
  6
Continuous
 62
     2
100
AcDbLine
 10
170.4612619422989
 20
793.6190702980482
 30
0.0
 11
171.8639861600461
 21
793.6190702980482
 31
0.0
  0
LINE
  5
3E7
102
{ACAD_REACTORS
330
464
330
465
102
}
330
71
100
AcDbEntity
  8
0
  6
Continuous
 62
     2
100
AcDbLine
 10
167.856202680765
 20
793.6190702980482
 30
0.0
 11
169.1587323115325
 21
792.146119768012
 31
0.0
  0
LINE
  5
3E8
102
{ACAD_REACTORS
330
464
330
465
102
}
330
71
100
AcDbEntity
  8
0
  6
Continuous
 62
     2
100
AcDbLine
 10
167.7607792645921
 20
790.565260774237
 30
0.0
 11
169.1587323115325
 21
792.146119768012
 31
0.0
  0
LINE
  5
3E9
102
{ACAD_REACTORS
330
46E
330
46F
102
}
330
71
100
AcDbEntity
  8
0
  6
Continuous
 62
     2
100
AcDbLine
 10
169.6215358799721
 20
788.2530907062263
 30
0.0
 11
169.6215358799721
 21
787.3805736994229
 31
0.0
  0
LINE
  5
3EA
102
{ACAD_REACTORS
330
46E
330
46F
102
}
330
71
100
AcDbEntity
  8
0
  6
Continuous
 62
     2
100
AcDbLine
 10
168.8518785370107
 20
789.4746145157502
 30
0.0
 11
169.9555178365788
 21
789.4746145157502
 31
0.0
  0
LINE
  5
3EB
102
{ACAD_REACTORS
330
470
330
471
102
}
330
71
100
AcDbEntity
  8
0
  6
Continuous
 62
     2
100
AcDbLine
 10
153.5188344007202
 20
788.2530907062268
 30
0.0
 11
153.5188344007202
 21
787.3805736994236
 31
0.0
  0
LINE
  5
3EC
102
{ACAD_REACTORS
330
470
330
471
102
}
330
71
100
AcDbEntity
  8
0
  6
Continuous
 62
     2
100
AcDbLine
 10
153.5188344007202
 20
789.2128594137097
 30
0.0
 11
153.5188344007202
 21
790.085376420513
 31
0.0
  0
LINE
  5
3ED
330
71
100
AcDbEntity
  8
1
  6
Continuous
 62
     7
100
AcDbLine
 10
269.356209985704
 20
788.4125702980464
 30
0.0
 11
176.2114054589527
 21
788.4125702980464
 31
0.0
  0
LINE
  5
3EE
330
71
100
AcDbEntity
  8
1
  6
Continuous
 62
     6
100
AcDbLine
 10
70.81140545895278
 20
779.9125702980464
 30
0.0
 11
25.85620998570278
 21
779.9125702980464
 31
0.0
  0
LINE
  5
3EF
330
71
100
AcDbEntity
  8
1
  6
Continuous
 62
     7
100
AcDbLine
 10
260.4378017040252
 20
805.4125702980464
 30
0.0
 11
260.4378017040252
 21
796.9125702980464
 31
0.0
  0
LINE
  5
3F0
330
71
100
AcDbEntity
  8
1
  6
Continuous
 62
     7
100
AcDbLine
 10
233.9378017040257
 20
805.4125702980464
 30
0.0
 11
233.9378017040257
 21
796.9125702980464
 31
0.0
  0
LINE
  5
3F1
330
71
100
AcDbEntity
  8
1
  6
Continuous
 62
     7
100
AcDbLine
 10
176.2114054589527
 20
796.9125702980464
 30
0.0
 11
176.2114054589527
 21
805.4125702980464
 31
0.0
  0
LINE
  5
3F2
330
71
100
AcDbEntity
  8
1
  6
Continuous
 62
     7
100
AcDbLine
 10
139.8114054589528
 20
796.9125702980464
 30
0.0
 11
139.8114054589528
 21
805.4125702980464
 31
0.0
  0
LINE
  5
3F3
330
71
100
AcDbEntity
  8
1
  6
Continuous
 62
     6
100
AcDbLine
 10
176.2114054589527
 20
796.9125702980464
 30
0.0
 11
269.3562099857045
 21
796.9125702980464
 31
0.0
  0
LINE
  5
3F4
330
71
100
AcDbEntity
  8
1
  6
Continuous
 62
     7
100
AcDbLine
 10
204.1114054589528
 20
788.4125702980463
 30
0.0
 11
204.1114054589528
 21
796.9125702980464
 31
0.0
  0
LINE
  5
3F5
330
71
100
AcDbEntity
  8
1
  6
PHANTOM
 62
     2
100
AcDbLine
 10
155.2980603455154
 20
801.0375702980463
 30
0.0
 11
149.7980603455154
 21
801.0375702980463
 31
0.0
  0
LINE
  5
3F6
330
71
100
AcDbEntity
  8
1
  6
PHANTOM
 62
     2
100
AcDbLine
 10
152.5480603455154
 20
803.7875702980463
 30
0.0
 11
152.5480603455154
 21
798.2875702980463
 31
0.0
  0
LINE
  5
3F7
330
71
100
AcDbEntity
  8
1
  6
DOT_CENTER
 62
     2
100
AcDbLine
 10
143.7980603455154
 20
801.0375702980463
 30
0.0
 11
149.2980603455154
 21
801.0375702980463
 31
0.0
  0
ARC
  5
3F8
102
{ACAD_REACTORS
330
470
330
471
102
}
330
71
100
AcDbEntity
  8
0
  6
Continuous
 62
     2
100
AcDbCircle
 10
152.1829064836024
 20
785.4202941147121
 30
0.0
 40
4.85259686349804
100
AcDbArc
 50
74.02000874164729
 51
84.84185523037642
  0
ARC
  5
3F9
102
{ACAD_REACTORS
330
470
330
471
102
}
330
71
100
AcDbEntity
  8
0
  6
Continuous
 62
     2
100
AcDbCircle
 10
152.7589470923561
 20
788.5760544705963
 30
0.0
 40
0.9059297849853858
100
AcDbArc
 50
71.5519238818529
 51
113.3722778881275
  0
ARC
  5
3FA
102
{ACAD_REACTORS
330
470
330
471
102
}
330
71
100
AcDbEntity
  8
0
  6
Continuous
 62
     2
100
AcDbCircle
 10
152.602507059654
 20
788.5279036306295
 30
0.0
 40
0.5115800601947035
100
AcDbArc
 50
208.5214732577016
 51
246.6277221118336
  0
ARC
  5
3FB
102
{ACAD_REACTORS
330
470
330
471
102
}
330
71
100
AcDbEntity
  8
0
  6
Continuous
 62
     2
100
AcDbCircle
 10
152.7589470923561
 20
788.8898956493395
 30
0.0
 40
0.905929784984867
100
AcDbArc
 50
246.6277221118696
 51
288.4480761181608
  0
ARC
  5
3FC
102
{ACAD_REACTORS
330
470
330
471
102
}
330
71
100
AcDbEntity
  8
0
  6
Continuous
 62
     2
100
AcDbCircle
 10
152.3407793586953
 20
790.1434414253766
 30
0.0
 40
2.227384008972719
100
AcDbArc
 50
288.4480761181337
 51
301.9309089499603
  0
ARC
  5
3FD
102
{ACAD_REACTORS
330
46C
330
46D
102
}
330
71
100
AcDbEntity
  8
0
  6
Continuous
 62
     2
100
AcDbCircle
 10
147.1157056260885
 20
790.8759434542907
 30
0.0
 40
0.9118481501444333
100
AcDbArc
 50
295.3740086781772
 51
64.62599132180748
  0
ARC
  5
3FE
102
{ACAD_REACTORS
330
46C
330
46D
102
}
330
71
100
AcDbEntity
  8
0
  6
Continuous
 62
     2
100
AcDbCircle
 10
147.6417483241764
 20
792.5906203427653
 30
0.0
 40
0.3157169230760143
100
AcDbArc
 50
90.18896704255111
 51
180.0
  0
ARC
  5
3FF
102
{ACAD_REACTORS
330
46E
330
46F
102
}
330
71
100
AcDbEntity
  8
0
  6
Continuous
 62
     2
100
AcDbCircle
 10
168.8518785370107
 20
788.5200915089241
 30
0.0
 40
0.9545230068260935
100
AcDbArc
 50
90.0
 51
109.3371432194304
  0
ARC
  5
400
102
{ACAD_REACTORS
330
46E
330
46F
102
}
330
71
100
AcDbEntity
  8
0
  6
Continuous
 62
     2
100
AcDbCircle
 10
169.0825657969884
 20
788.732975059968
 30
0.0
 40
0.941059735334906
100
AcDbArc
 50
151.4785267423609
 51
208.5214732576695
  0
ARC
  5
401
102
{ACAD_REACTORS
330
46E
330
46F
102
}
330
71
100
AcDbEntity
  8
0
  6
Continuous
 62
     2
100
AcDbCircle
 10
168.8616485716101
 20
788.8898956493395
 30
0.0
 40
0.9059297849852166
100
AcDbArc
 50
246.6277221118185
 51
288.4480761180828
  0
ARC
  5
402
102
{ACAD_REACTORS
330
46E
330
46F
102
}
330
71
100
AcDbEntity
  8
0
  6
Continuous
 62
     2
100
AcDbCircle
 10
168.4434808379482
 20
790.1434414253761
 30
0.0
 40
2.227384008972719
100
AcDbArc
 50
288.4480761181337
 51
301.9309089499401
  0
ARC
  5
403
102
{ACAD_REACTORS
330
46E
330
46F
102
}
330
71
100
AcDbEntity
  8
0
  6
Continuous
 62
     2
100
AcDbCircle
 10
168.2856079628554
 20
792.0456560052244
 30
0.0
 40
4.852596863498822
100
AcDbArc
 50
275.158144769636
 51
285.9799912583383
  0
ARC
  5
404
102
{ACAD_REACTORS
330
46E
330
46F
102
}
330
71
100
AcDbEntity
  8
0
  6
Continuous
 62
     2
100
AcDbCircle
 10
168.5744640575912
 20
788.8457654220028
 30
0.0
 40
1.639695123940421
100
AcDbArc
 50
195.0618917771015
 51
275.158144769676
  0
ARC
  5
405
102
{ACAD_REACTORS
330
466
330
467
102
}
330
71
100
AcDbEntity
  8
0
  6
Continuous
 62
     2
100
AcDbCircle
 10
152.8462507459001
 20
792.5637046567144
 30
0.0
 40
1.055365641333651
100
AcDbArc
 50
270.0
 51
90.0
  0
ARC
  5
406
102
{ACAD_REACTORS
330
46C
330
46D
102
}
330
71
100
AcDbEntity
  8
0
  6
Continuous
 62
     2
100
AcDbCircle
 10
145.0661996376446
 20
788.2343427766963
 30
0.0
 40
0.3157169230755983
100
AcDbArc
 50
180.0
 51
270.0
  0
ARC
  5
407
102
{ACAD_REACTORS
330
46C
330
46D
102
}
330
71
100
AcDbEntity
  8
0
  6
Continuous
 62
     2
100
AcDbCircle
 10
146.5420328986543
 20
792.5907978194134
 30
0.0
 40
0.315716923076593
100
AcDbArc
 50
0.0
 51
90.0
  0
ARC
  5
408
102
{ACAD_REACTORS
330
46C
330
46D
102
}
330
71
100
AcDbEntity
  8
0
  6
Continuous
 62
     2
100
AcDbCircle
 10
146.5420328986543
 20
791.9867732003529
 30
0.0
 40
0.3157169230761717
100
AcDbArc
 50
295.1944106485354
 51
0.0
  0
ARC
  5
409
102
{ACAD_REACTORS
330
46C
330
46D
102
}
330
71
100
AcDbEntity
  8
0
  6
Continuous
 62
     2
100
AcDbCircle
 10
146.5420328986543
 20
788.2343427766963
 30
0.0
 40
0.3157169230767067
100
AcDbArc
 50
270.0
 51
0.0
  0
ARC
  5
40A
102
{ACAD_REACTORS
330
46C
330
46D
102
}
330
71
100
AcDbEntity
  8
0
  6
Continuous
 62
     2
100
AcDbCircle
 10
144.4723049608982
 20
793.1948256826462
 30
0.0
 40
0.4242446153838273
100
AcDbArc
 50
90.0
 51
180.0
  0
ARC
  5
40B
102
{ACAD_REACTORS
330
46C
330
46D
102
}
330
71
100
AcDbEntity
  8
0
  6
Continuous
 62
     2
100
AcDbCircle
 10
149.945617051615
 20
793.1948256826462
 30
0.0
 40
0.4242446153837989
100
AcDbArc
 50
0.0
 51
90.0
  0
ARC
  5
40C
102
{ACAD_REACTORS
330
46C
330
46D
102
}
330
71
100
AcDbEntity
  8
0
  6
Continuous
 62
     2
100
AcDbCircle
 10
149.945617051615
 20
787.630314913446
 30
0.0
 40
0.4242446153832589
100
AcDbArc
 50
270.0
 51
0.0
  0
ARC
  5
40D
102
{ACAD_REACTORS
330
46A
330
46B
102
}
330
71
100
AcDbEntity
  8
0
  6
Continuous
 62
     2
100
AcDbCircle
 10
159.1640009387065
 20
792.0921655361423
 30
0.0
 40
0.7717997786796597
100
AcDbArc
 50
321.879580202845
 51
38.12041979716158
  0
ARC
  5
40E
102
{ACAD_REACTORS
330
46A
330
46B
102
}
330
71
100
AcDbEntity
  8
0
  6
Continuous
 62
     2
100
AcDbCircle
 10
159.3637409750527
 20
791.9354343580219
 30
0.0
 40
0.5179085730134946
100
AcDbArc
 50
218.1204197971541
 51
321.8795802028517
  0
ARC
  5
40F
102
{ACAD_REACTORS
330
468
330
469
102
}
330
71
100
AcDbEntity
  8
0
  6
Continuous
 62
     2
100
AcDbCircle
 10
155.6837333860925
 20
788.732975059968
 30
0.0
 40
1.458034083651977
100
AcDbArc
 50
297.5481481757016
 51
62.45185182429842
  0
ARC
  5
410
102
{ACAD_REACTORS
330
468
330
469
102
}
330
71
100
AcDbEntity
  8
0
  6
Continuous
 62
     2
100
AcDbCircle
 10
155.1218536024259
 20
788.732975059968
 30
0.0
 40
1.458034083651465
100
AcDbArc
 50
117.548148175663
 51
242.451851824337
  0
ARC
  5
411
102
{ACAD_REACTORS
330
468
330
469
102
}
330
71
100
AcDbEntity
  8
0
  6
Continuous
 62
     2
100
AcDbCircle
 10
155.4027934942592
 20
788.1944000496652
 30
0.0
 40
2.065479772208543
100
AcDbArc
 50
62.451851824306
 51
117.5481481756674
  0
ARC
  5
412
102
{ACAD_REACTORS
330
468
330
469
102
}
330
71
100
AcDbEntity
  8
0
  6
Continuous
 62
     2
100
AcDbCircle
 10
155.4027934942592
 20
789.2715500702712
 30
0.0
 40
2.065479772208446
100
AcDbArc
 50
242.4518518243384
 51
297.5481481756882
  0
ARC
  5
413
102
{ACAD_REACTORS
330
46A
330
46B
102
}
330
71
100
AcDbEntity
  8
0
  6
Continuous
 62
     2
100
AcDbCircle
 10
159.563481011399
 20
792.0921655361423
 30
0.0
 40
0.7717997786797298
100
AcDbArc
 50
141.8795802028384
 51
218.1204197971549
  0
ARC
  5
414
102
{ACAD_REACTORS
330
46A
330
46B
102
}
330
71
100
AcDbEntity
  8
0
  6
Continuous
 62
     2
100
AcDbCircle
 10
159.3637409750527
 20
792.2488967142627
 30
0.0
 40
0.5179085730135616
100
AcDbArc
 50
38.12041979714829
 51
141.8795802028459
  0
ARC
  5
415
102
{ACAD_REACTORS
330
46C
330
46D
102
}
330
71
100
AcDbEntity
  8
0
  6
Continuous
 62
     2
100
AcDbCircle
 10
144.4723049608982
 20
787.630314913446
 30
0.0
 40
0.4242446153828041
100
AcDbArc
 50
180.0
 51
270.0
  0
ARC
  5
416
102
{ACAD_REACTORS
330
46C
330
46D
102
}
330
71
100
AcDbEntity
  8
0
  6
Continuous
 62
     2
100
AcDbCircle
 10
146.5420328986543
 20
789.7651137082279
 30
0.0
 40
0.315716923076593
100
AcDbArc
 50
0.0
 51
64.80558935146468
  0
ARC
  5
417
102
{ACAD_REACTORS
330
46C
330
46D
102
}
330
71
100
AcDbEntity
  8
0
  6
Continuous
 62
     2
100
AcDbCircle
 10
147.0646173462293
 20
790.8759434542907
 30
0.0
 40
0.911897523557601
100
AcDbArc
 50
115.1944106485306
 51
244.8055893514846
  0
ARC
  5
418
102
{ACAD_REACTORS
330
46C
330
46D
102
}
330
71
100
AcDbEntity
  8
0
  6
Continuous
 62
     2
100
AcDbCircle
 10
145.0661996376446
 20
792.5907978194134
 30
0.0
 40
0.3157169230761383
100
AcDbArc
 50
90.0
 51
180.0
  0
ARC
  5
419
102
{ACAD_REACTORS
330
466
330
467
102
}
330
71
100
AcDbEntity
  8
0
  6
Continuous
 62
     2
100
AcDbCircle
 10
152.4047782196617
 20
792.603100627937
 30
0.0
 40
0.3528638246712035
100
AcDbArc
 50
270.0
 51
90.0
  0
ARC
  5
41A
102
{ACAD_REACTORS
330
46A
330
46B
102
}
330
71
100
AcDbEntity
  8
0
  6
Continuous
 62
     2
100
AcDbCircle
 10
159.1474689648875
 20
792.0921655361423
 30
0.0
 40
1.526904761905939
100
AcDbArc
 50
90.0
 51
270.0
  0
ARC
  5
41B
102
{ACAD_REACTORS
330
46E
330
46F
102
}
330
71
100
AcDbEntity
  8
0
  6
Continuous
 62
     2
100
AcDbCircle
 10
168.5744640575912
 20
788.620184697933
 30
0.0
 40
1.639695123940214
100
AcDbArc
 50
90.0
 51
164.9381082228947
  0
ARC
  5
41C
102
{ACAD_REACTORS
330
46E
330
46F
102
}
330
71
100
AcDbEntity
  8
0
  6
Continuous
 62
     2
100
AcDbCircle
 10
168.1553362141296
 20
788.732975059968
 30
0.0
 40
1.20565616839296
100
AcDbArc
 50
164.938108222905
 51
195.061891777095
  0
ARC
  5
41D
102
{ACAD_REACTORS
330
46E
330
46F
102
}
330
71
100
AcDbEntity
  8
0
  6
Continuous
 62
     2
100
AcDbCircle
 10
168.705208538907
 20
788.5279036306295
 30
0.0
 40
0.5115800601959695
100
AcDbArc
 50
208.5214732576826
 51
246.6277221118453
  0
ARC
  5
41E
102
{ACAD_REACTORS
330
46E
330
46F
102
}
330
71
100
AcDbEntity
  8
0
  6
Continuous
 62
     2
100
AcDbCircle
 10
168.705208538907
 20
788.938046489307
 30
0.0
 40
0.5115800601944048
100
AcDbArc
 50
109.3371432194823
 51
151.4785267424182
  0
ARC
  5
41F
102
{ACAD_REACTORS
330
46C
330
46D
102
}
330
71
100
AcDbEntity
  8
0
  6
Continuous
 62
     2
100
AcDbCircle
 10
147.6417483241764
 20
789.1849504476272
 30
0.0
 40
0.315716923076792
100
AcDbArc
 50
180.0
 51
269.811032957449
  0
ARC
  5
420
102
{ACAD_REACTORS
330
46C
330
46D
102
}
330
71
100
AcDbEntity
  8
0
  6
Continuous
 62
     2
100
AcDbCircle
 10
147.6473644594864
 20
790.8877853951961
 30
0.0
 40
2.018561131933266
100
AcDbArc
 50
269.8110329575858
 51
90.18896704241416
  0
ARC
  5
421
102
{ACAD_REACTORS
330
46C
330
46D
102
}
330
71
100
AcDbEntity
  8
0
  6
Continuous
 62
     2
100
AcDbCircle
 10
147.6417483241764
 20
791.9850850542584
 30
0.0
 40
0.315716923076792
100
AcDbArc
 50
180.0
 51
244.625991321639
  0
ARC
  5
422
102
{ACAD_REACTORS
330
46C
330
46D
102
}
330
71
100
AcDbEntity
  8
0
  6
Continuous
 62
     2
100
AcDbCircle
 10
147.6417483241764
 20
789.7668018543222
 30
0.0
 40
0.3157169230765964
100
AcDbArc
 50
115.3740086783521
 51
180.0
  0
ARC
  5
423
102
{ACAD_REACTORS
330
470
330
471
102
}
330
71
100
AcDbEntity
  8
0
  6
Continuous
 62
     2
100
AcDbCircle
 10
152.4717625783383
 20
788.620184697933
 30
0.0
 40
1.639695123940553
100
AcDbArc
 50
84.84185523036649
 51
164.9381082228867
  0
ARC
  5
424
102
{ACAD_REACTORS
330
470
330
471
102
}
330
71
100
AcDbEntity
  8
0
  6
Continuous
 62
     2
100
AcDbCircle
 10
152.0526347348755
 20
788.732975059968
 30
0.0
 40
1.205656168390957
100
AcDbArc
 50
164.9381082228794
 51
195.0618917770945
  0
ARC
  5
425
102
{ACAD_REACTORS
330
470
330
471
102
}
330
71
100
AcDbEntity
  8
0
  6
Continuous
 62
     2
100
AcDbCircle
 10
152.4717625783383
 20
788.8457654220028
 30
0.0
 40
1.639695123939422
100
AcDbArc
 50
195.0618917770903
 51
275.1581447696353
  0
ARC
  5
426
102
{ACAD_REACTORS
330
470
330
471
102
}
330
71
100
AcDbEntity
  8
0
  6
Continuous
 62
     2
100
AcDbCircle
 10
152.1829064836024
 20
792.0456560052244
 30
0.0
 40
4.852596863498157
100
AcDbArc
 50
275.1581447696236
 51
285.979991258353
  0
ARC
  5
427
102
{ACAD_REACTORS
330
470
330
471
102
}
330
71
100
AcDbEntity
  8
0
  6
Continuous
 62
     2
100
AcDbCircle
 10
152.9798643177344
 20
788.732975059968
 30
0.0
 40
0.9410597353332545
100
AcDbArc
 50
151.4785267422669
 51
208.5214732577088
  0
ARC
  5
428
102
{ACAD_REACTORS
330
470
330
471
102
}
330
71
100
AcDbEntity
  8
0
  6
Continuous
 62
     2
100
AcDbCircle
 10
152.602507059654
 20
788.938046489307
 30
0.0
 40
0.5115800601948179
100
AcDbArc
 50
113.3722778881916
 51
151.4785267422984
  0
ARC
  5
429
102
{ACAD_REACTORS
330
470
330
471
102
}
330
71
100
AcDbEntity
  8
0
  6
Continuous
 62
     2
100
AcDbCircle
 10
152.3407793586953
 20
787.3225086945598
 30
0.0
 40
2.227384008973468
100
AcDbArc
 50
58.06909105003972
 51
71.5519238818663
  0
ARC
  5
42A
102
{ACAD_REACTORS
330
468
330
469
102
}
330
71
100
AcDbEntity
  8
0
  6
Continuous
 62
     2
100
AcDbCircle
 10
155.4027934942592
 20
788.8897062380885
 30
0.0
 40
0.5179085730133126
100
AcDbArc
 50
38.12041979715392
 51
141.8795802028558
  0
ARC
  5
42B
102
{ACAD_REACTORS
330
468
330
469
102
}
330
71
100
AcDbEntity
  8
0
  6
Continuous
 62
     2
100
AcDbCircle
 10
155.6025335306053
 20
788.732975059968
 30
0.0
 40
0.7717997786795031
100
AcDbArc
 50
141.879580202836
 51
218.1204197971707
  0
ARC
  5
42C
102
{ACAD_REACTORS
330
468
330
469
102
}
330
71
100
AcDbEntity
  8
0
  6
Continuous
 62
     2
100
AcDbCircle
 10
155.4027934942592
 20
788.576243881848
 30
0.0
 40
0.5179085730137754
100
AcDbArc
 50
218.1204197971937
 51
321.8795802027966
  0
ARC
  5
42D
102
{ACAD_REACTORS
330
468
330
469
102
}
330
71
100
AcDbEntity
  8
0
  6
Continuous
 62
     2
100
AcDbCircle
 10
155.2030534579127
 20
788.732975059968
 30
0.0
 40
0.7717997786797969
100
AcDbArc
 50
321.8795802028424
 51
38.12041979715104
  0
CIRCLE
  5
42E
330
71
100
AcDbEntity
  8
1
  6
Continuous
 62
     2
100
AcDbCircle
 10
152.5480603455154
 20
801.0375702980463
 30
0.0
 40
2.5
  0
CIRCLE
  5
42F
330
71
100
AcDbEntity
  8
1
  6
Continuous
 62
     2
100
AcDbCircle
 10
152.5480603455154
 20
801.0375702980463
 30
0.0
 40
1.249999999999886
  0
CIRCLE
  5
430
102
{ACAD_REACTORS
330
46C
330
46D
102
}
330
71
100
AcDbEntity
  8
0
  6
Continuous
 62
     2
100
AcDbCircle
 10
147.0918906114157
 20
790.8759434542907
 30
0.0
 40
0.4709789327785074
  0
MTEXT
  5
431
330
71
100
AcDbEntity
  8
1
 62
     3
100
AcDbMText
 10
-17.63872222822545
 20
966.7038784533452
 30
0.0
 40
1.8
 41
0.0
 71
     7
 72
     1
  3
Weitergabe sowie Vervielf\U+00e4ltigung dieses Dokuments, Verwertung und \PMitteilung seines Inhalts sind verboten, soweit nicht ausdr\U+00fccklich gestattet. \PZuwiderhandlungen verpflichten zu Schadenersatz. Alle Rechte f\U+00fcr den Fall\Pder Pat
  1
ent-, Gebrauchsmuster- oder Designeintragung vorbehalten.
  7
CONVERTER_11
 73
     1
 44
0.99639855942377
  0
MTEXT
  5
432
330
71
100
AcDbEntity
  8
1
 62
     3
100
AcDbMText
 10
165.2143876105627
 20
966.7038784533452
 30
0.0
 40
1.8
 41
0.0
 71
     7
 72
     1
  3
Transfer or duplication of this document as well as the utilisation or\Pcommunication of its content are not permitted unless express consent\Pis granted. Violations give rise to claims for damages. All rights reserved\Pin case of patent, utility mo
  1
del or design patent registrations.
  7
CONVERTER_11
 73
     1
 44
0.99639855942377
  0
TEXT
  5
433
330
71
100
AcDbEntity
  8
1
 62
     2
100
AcDbText
 10
159.0114054589526
 20
781.1535530830547
 30
0.0
 40
1.8
  1
of
 41
0.9
  7
CONVERTER_11
100
AcDbText
  0
TEXT
  5
434
330
71
100
AcDbEntity
  8
1
 62
     2
100
AcDbText
 10
140.8114054589528
 20
781.1535530830547
 30
0.0
 40
1.8
  1
page
 41
0.9
  7
CONVERTER_11
100
AcDbText
  0
TEXT
  5
435
330
71
100
AcDbEntity
  8
1
 62
     2
100
AcDbText
 10
149.4576704292948
 20
781.1133216442444
 30
0.0
 40
1.8
  1
1
 41
0.9
  7
CONVERTER_11
100
AcDbText
  0
TEXT
  5
436
330
71
100
AcDbEntity
  8
1
 62
     2
100
AcDbText
 10
164.2467142687663
 20
781.1625702980463
 30
0.0
 40
1.8
  1
1
 41
0.9
  7
CONVERTER_11
100
AcDbText
  0
MTEXT
  5
438
330
71
100
AcDbEntity
  8
1
 62
     7
100
AcDbMText
 10
222.7838077223283
 20
783.1625702980466
 30
0.0
 40
3.0
 41
0.0
 71
     5
 72
     1
  1
PT-IQ-1X2-24DC-P
  7
CONVERTER_12
 73
     1
 44
1.20048019207683
  0
MTEXT
  5
439
330
71
100
AcDbEntity
  8
1
 62
     2
100
AcDbMText
 10
177.2114054589527
 20
787.4125702980464
 30
0.0
 40
1.8
 41
0.0
 71
     1
 72
     1
  1
description
  7
CONVERTER_11
 73
     1
 44
1.20048019207683
  0
MTEXT
  5
43A
330
71
100
AcDbEntity
  8
1
 62
     3
100
AcDbMText
 10
166.0114054589527
 20
801.0375702980464
 30
0.0
 40
2.5
 41
0.0
 71
     5
 72
     1
  1
DIN A4
  7
CONVERTER_11
 73
     1
 44
1.20048019207683
  0
MTEXT
  5
43B
330
71
100
AcDbEntity
  8
1
 62
     7
100
AcDbMText
 10
-20.14379001429631
 20
802.4125702980464
 30
0.0
 40
3.5
 41
0.0
 71
     5
 72
     1
  1
D
  7
CONVERTER_11
 73
     1
 44
1.20048019207683
  0
MTEXT
  5
43C
330
71
100
AcDbEntity
  8
1
 62
     7
100
AcDbMText
 10
-20.14379001429631
 20
854.9125702980464
 30
0.0
 40
3.5
 41
0.0
 71
     5
 72
     1
  1
C
  7
CONVERTER_11
 73
     1
 44
1.20048019207683
  0
MTEXT
  5
43D
330
71
100
AcDbEntity
  8
1
 62
     7
100
AcDbMText
 10
-20.14379001429631
 20
904.9125702980464
 30
0.0
 40
3.5
 41
0.0
 71
     5
 72
     1
  1
B
  7
CONVERTER_11
 73
     1
 44
1.20048019207683
  0
MTEXT
  5
43E
330
71
100
AcDbEntity
  8
1
 62
     7
100
AcDbMText
 10
-20.14379001429631
 20
957.4125702980464
 30
0.0
 40
3.5
 41
0.0
 71
     5
 72
     1
  1
A
  7
CONVERTER_11
 73
     1
 44
1.20048019207683
  0
MTEXT
  5
43F
330
71
100
AcDbEntity
  8
1
 62
     7
100
AcDbMText
 10
250.106209985702
 20
777.4125702980463
 30
0.0
 40
3.5
 41
0.0
 71
     5
 72
     1
  1
6
  7
CONVERTER_11
 73
     1
 44
1.20048019207683
  0
MTEXT
  5
440
330
71
100
AcDbEntity
  8
1
 62
     7
100
AcDbMText
 10
200.8562099857028
 20
777.4125702980463
 30
0.0
 40
3.5
 41
0.0
 71
     5
 72
     1
  1
5
  7
CONVERTER_11
 73
     1
 44
1.20048019207683
  0
MTEXT
  5
441
330
71
100
AcDbEntity
  8
1
 62
     7
100
AcDbMText
 10
150.8562099857027
 20
777.4125702980463
 30
0.0
 40
3.5
 41
0.0
 71
     5
 72
     1
  1
4
  7
CONVERTER_11
 73
     1
 44
1.20048019207683
  0
MTEXT
  5
442
330
71
100
AcDbEntity
  8
1
 62
     7
100
AcDbMText
 10
100.8562099857028
 20
777.4125702980463
 30
0.0
 40
3.5
 41
0.0
 71
     5
 72
     1
  1
3
  7
CONVERTER_11
 73
     1
 44
1.20048019207683
  0
MTEXT
  5
443
330
71
100
AcDbEntity
  8
1
 62
     7
100
AcDbMText
 10
50.85620998570278
 20
777.4125702980463
 30
0.0
 40
3.5
 41
0.0
 71
     5
 72
     1
  1
2
  7
CONVERTER_11
 73
     1
 44
1.20048019207683
  0
MTEXT
  5
444
330
71
100
AcDbEntity
  8
1
 62
     7
100
AcDbMText
 10
1.60620998570317
 20
777.4125702980463
 30
0.0
 40
3.5
 41
0.0
 71
     5
 72
     1
  1
1
  7
CONVERTER_11
 73
     1
 44
1.20048019207683
  0
MTEXT
  5
445
330
71
100
AcDbEntity
  8
1
 62
     7
100
AcDbMText
 10
271.8562099857018
 20
802.4125702980464
 30
0.0
 40
3.5
 41
0.0
 71
     5
 72
     1
  1
D
  7
CONVERTER_11
 73
     1
 44
1.20048019207683
  0
MTEXT
  5
446
330
71
100
AcDbEntity
  8
1
 62
     7
100
AcDbMText
 10
271.8562099857018
 20
904.9125702980483
 30
0.0
 40
3.5
 41
0.0
 71
     5
 72
     1
  1
B
  7
CONVERTER_11
 73
     1
 44
1.20048019207683
  0
MTEXT
  5
447
330
71
100
AcDbEntity
  8
1
 62
     7
100
AcDbMText
 10
271.8562099857018
 20
957.4125702980464
 30
0.0
 40
3.5
 41
0.0
 71
     5
 72
     1
  1
A
  7
CONVERTER_11
 73
     1
 44
1.20048019207683
  0
MTEXT
  5
448
330
71
100
AcDbEntity
  8
1
 62
     7
100
AcDbMText
 10
271.8562099857018
 20
854.9125702980483
 30
0.0
 40
3.5
 41
0.0
 71
     5
 72
     1
  1
C
  7
CONVERTER_11
 73
     1
 44
1.20048019207683
  0
MTEXT
  5
449
330
71
100
AcDbEntity
  8
1
 62
     2
100
AcDbMText
 10
105.3733907339052
 20
792.6625702980463
 30
0.0
 40
2.0
 41
0.0
 71
     5
 72
     1
  1
General Information\P- Simplified representation\P- Document excluded from change process\P- Linear dimensions [mm]
  7
CONVERTER_11
 73
     1
 44
1.20048019207683
  0
TEXT
  5
44A
330
71
100
AcDbEntity
  8
1
 62
     7
100
AcDbText
 10
177.7114054589525
 20
789.7125702980463
 30
0.0
 40
2.5
  1
2800772
 41
0.81
  7
CONVERTER_12
100
AcDbText
  0
MTEXT
  5
44B
330
71
100
AcDbEntity
  8
1
 62
     2
100
AcDbMText
 10
177.3114054589528
 20
795.9125702980464
 30
0.0
 40
1.8
 41
0.0
 71
     1
 72
     1
  1
ident.-No.
  7
CONVERTER_11
 73
     1
 44
1.20048019207683
  0
MTEXT
  5
44C
330
71
100
AcDbEntity
  8
1
 62
     2
100
AcDbMText
 10
261.5378017040255
 20
804.4125702980464
 30
0.0
 40
1.8
 41
0.0
 71
     1
 72
     1
  1
scale
  7
CONVERTER_11
 73
     1
 44
1.20048019207683
  0
MTEXT
  5
44E
330
71
100
AcDbEntity
  8
1
 62
     3
100
AcDbMText
 10
264.8970058448651
 20
798.2125702980464
 30
0.0
 40
2.5
 41
0.0
 71
     8
 72
     1
  1
1:1
  7
CONVERTER_13
 73
     1
 44
1.32052821128451
  0
TEXT
  5
44F
330
71
100
AcDbEntity
  8
1
 62
     7
100
AcDbText
 10
177.3114054589528
 20
798.2125702980463
 30
0.0
 40
2.5
  1
83130449
 41
0.81
  7
CONVERTER_12
100
AcDbText
  0
MTEXT
  5
451
330
71
100
AcDbEntity
  8
1
 62
     2
100
AcDbMText
 10
177.3114054589528
 20
804.4125702980464
 30
0.0
 40
1.8
 41
0.0
 71
     1
 72
     1
  1
document-No. / RI
  7
CONVERTER_14
 73
     1
 44
1.32052821128451
  0
TEXT
  5
452
330
71
100
AcDbEntity
  8
1
 62
     3
100
AcDbText
 10
205.1114054589528
 20
789.7125702980463
 30
0.0
 40
2.5
  1
TECDOC 2D_Productdrawing
 41
0.81
  7
CONVERTER_12
100
AcDbText
  0
MTEXT
  5
453
330
71
100
AcDbEntity
  8
1
 62
     2
100
AcDbMText
 10
205.1114054589528
 20
795.9125702980463
 30
0.0
 40
1.8
 41
0.0
 71
     1
 72
     1
  1
document-type
  7
CONVERTER_11
 73
     1
 44
1.20048019207683
  0
MTEXT
  5
454
330
71
100
AcDbEntity
  8
1
 62
     2
100
AcDbMText
 10
234.9378017040257
 20
804.4125702980463
 30
0.0
 40
1.8
 41
0.0
 71
     1
 72
     1
  1
date
  7
CONVERTER_11
 73
     1
 44
1.32052821128451
  0
TEXT
  5
455
330
71
100
AcDbEntity
  8
1
 62
     3
100
AcDbText
 10
234.9378017040257
 20
798.2125702980463
 30
0.0
 40
2.5
  1
26.01.2018
 41
0.81
  7
CONVERTER_12
100
AcDbText
  0
TEXT
  5
456
330
71
100
AcDbEntity
  8
1
 62
     7
100
AcDbText
 10
197.3413176780086
 20
798.2125702980463
 30
0.0
 40
2.5
  1
01
 41
0.81
  7
CONVERTER_12
100
AcDbText
  0
TEXT
  5
457
330
71
100
AcDbEntity
  8
1
 62
     7
100
AcDbText
 10
195.1849531809666
 20
798.2125702980463
 30
0.0
 40
2.5
  1
/
 41
0.9
  7
CONVERTER_11
100
AcDbText
  0
HATCH
  5
458
330
71
100
AcDbEntity
  8
1
  6
Continuous
 62
     2
100
AcDbHatch
 10
0.0
 20
0.0
 30
0.0
210
0.0
220
0.0
230
1.0
  2
_USER
 70
     0
 71
     1
 91
        1
 92
        1
 93
       12
 72
     1
 10
157.4789061719139
 20
790.565260774237
 11
156.2861134697475
 21
790.565260774237
 72
     1
 10
156.2861134697475
 20
790.565260774237
 11
156.2861134697475
 21
791.6995328830808
 72
     1
 10
156.2861134697475
 20
791.6995328830808
 11
155.23645589184
 21
791.6995328830808
 72
     1
 10
155.23645589184
 20
791.6995328830808
 11
155.23645589184
 21
790.565260774237
 72
     1
 10
155.23645589184
 20
790.565260774237
 11
154.0436631896734
 21
790.565260774237
 72
     1
 10
154.0436631896734
 20
790.565260774237
 11
154.0436631896734
 21
793.6190702980482
 72
     1
 10
154.0436631896734
 20
793.6190702980482
 11
155.23645589184
 21
793.6190702980482
 72
     1
 10
155.23645589184
 20
793.6190702980482
 11
155.23645589184
 21
792.5502369647136
 72
     1
 10
155.23645589184
 20
792.5502369647136
 11
156.2861134697475
 21
792.5502369647136
 72
     1
 10
156.2861134697475
 20
792.5502369647136
 11
156.2861134697475
 21
793.6190702980482
 72
     1
 10
156.2861134697475
 20
793.6190702980482
 11
157.4789061719139
 21
793.6190702980482
 72
     1
 10
157.4789061719139
 20
793.6190702980482
 11
157.4789061719139
 21
790.565260774237
 97
       12
330
3C5
330
3C6
330
3B0
330
3AF
330
3AE
330
3C2
330
3AD
330
3C3
330
3C4
330
3AC
330
3AB
330
3AA
 75
     1
 76
     0
 52
45.0
 41
0.1
 77
     0
 78
     1
 53
45.0
 43
0.0
 44
0.0
 45
-0.0707106781186548
 46
0.0707106781186548
 79
     0
 98
        1
 10
0.0
 20
0.0
  0
HATCH
  5
459
330
71
100
AcDbEntity
  8
1
  6
Continuous
 62
     2
100
AcDbHatch
 10
0.0
 20
0.0
 30
0.0
210
0.0
220
0.0
230
1.0
  2
_USER
 70
     0
 71
     1
 91
        1
 92
        1
 93
       12
 72
     1
 10
157.4789061719139
 20
790.565260774237
 11
156.2861134697475
 21
790.565260774237
 72
     1
 10
156.2861134697475
 20
790.565260774237
 11
156.2861134697475
 21
791.6995328830808
 72
     1
 10
156.2861134697475
 20
791.6995328830808
 11
155.23645589184
 21
791.6995328830808
 72
     1
 10
155.23645589184
 20
791.6995328830808
 11
155.23645589184
 21
790.565260774237
 72
     1
 10
155.23645589184
 20
790.565260774237
 11
154.0436631896734
 21
790.565260774237
 72
     1
 10
154.0436631896734
 20
790.565260774237
 11
154.0436631896734
 21
793.6190702980482
 72
     1
 10
154.0436631896734
 20
793.6190702980482
 11
155.23645589184
 21
793.6190702980482
 72
     1
 10
155.23645589184
 20
793.6190702980482
 11
155.23645589184
 21
792.5502369647136
 72
     1
 10
155.23645589184
 20
792.5502369647136
 11
156.2861134697475
 21
792.5502369647136
 72
     1
 10
156.2861134697475
 20
792.5502369647136
 11
156.2861134697475
 21
793.6190702980482
 72
     1
 10
156.2861134697475
 20
793.6190702980482
 11
157.4789061719139
 21
793.6190702980482
 72
     1
 10
157.4789061719139
 20
793.6190702980482
 11
157.4789061719139
 21
790.565260774237
 97
       12
330
3C5
330
3C6
330
3B0
330
3AF
330
3AE
330
3C2
330
3AD
330
3C3
330
3C4
330
3AC
330
3AB
330
3AA
 75
     1
 76
     0
 52
45.0
 41
0.1
 77
     0
 78
     1
 53
45.0
 43
0.0
 44
0.0
 45
-0.0707106781186548
 46
0.0707106781186548
 79
     0
 98
        1
 10
0.0
 20
0.0
  0
HATCH
  5
45A
330
71
100
AcDbEntity
  8
1
  6
Continuous
 62
     2
100
AcDbHatch
 10
0.0
 20
0.0
 30
0.0
210
0.0
220
0.0
230
1.0
  2
_USER
 70
     0
 71
     1
 91
        1
 92
        1
 93
       10
 72
     1
 10
159.7212055211022
 20
788.9511043116687
 11
158.4807011108493
 21
790.2598798218737
 72
     1
 10
158.4807011108493
 20
790.2598798218737
 11
157.2879084086817
 21
790.2598798218737
 72
     1
 10
157.2879084086817
 20
790.2598798218737
 11
157.2879084086817
 21
787.2060702980627
 72
     1
 10
157.2879084086817
 20
787.2060702980627
 11
158.4807011108493
 21
787.2060702980627
 72
     1
 10
158.4807011108493
 20
787.2060702980627
 11
158.4807011108493
 21
788.5148458082673
 72
     1
 10
158.4807011108493
 20
788.5148458082673
 11
159.7212055211022
 21
787.2060702980627
 72
     1
 10
159.7212055211022
 20
787.2060702980627
 11
160.9139982232686
 21
787.2060702980627
 72
     1
 10
160.9139982232686
 20
787.2060702980627
 11
160.9139982232686
 21
790.2598798218737
 72
     1
 10
160.9139982232686
 20
790.2598798218737
 11
159.7212055211022
 21
790.2598798218737
 72
     1
 10
159.7212055211022
 20
790.2598798218737
 11
159.7212055211022
 21
788.9511043116687
 97
       10
330
3D3
330
3A3
330
3A2
330
3A5
330
3CE
330
3CF
330
3A4
330
3D0
330
3D1
330
3D2
 75
     1
 76
     0
 52
45.0
 41
0.1
 77
     0
 78
     1
 53
45.0
 43
0.0
 44
0.0
 45
-0.0707106781186548
 46
0.0707106781186548
 79
     0
 98
        1
 10
0.0
 20
0.0
  0
HATCH
  5
45B
330
71
100
AcDbEntity
  8
1
  6
Continuous
 62
     2
100
AcDbHatch
 10
0.0
 20
0.0
 30
0.0
210
0.0
220
0.0
230
1.0
  2
_USER
 70
     0
 71
     1
 91
        1
 92
        1
 93
       10
 72
     1
 10
159.7212055211022
 20
788.9511043116687
 11
158.4807011108493
 21
790.2598798218737
 72
     1
 10
158.4807011108493
 20
790.2598798218737
 11
157.2879084086817
 21
790.2598798218737
 72
     1
 10
157.2879084086817
 20
790.2598798218737
 11
157.2879084086817
 21
787.2060702980627
 72
     1
 10
157.2879084086817
 20
787.2060702980627
 11
158.4807011108493
 21
787.2060702980627
 72
     1
 10
158.4807011108493
 20
787.2060702980627
 11
158.4807011108493
 21
788.5148458082673
 72
     1
 10
158.4807011108493
 20
788.5148458082673
 11
159.7212055211022
 21
787.2060702980627
 72
     1
 10
159.7212055211022
 20
787.2060702980627
 11
160.9139982232686
 21
787.2060702980627
 72
     1
 10
160.9139982232686
 20
787.2060702980627
 11
160.9139982232686
 21
790.2598798218737
 72
     1
 10
160.9139982232686
 20
790.2598798218737
 11
159.7212055211022
 21
790.2598798218737
 72
     1
 10
159.7212055211022
 20
790.2598798218737
 11
159.7212055211022
 21
788.9511043116687
 97
       10
330
3D3
330
3A3
330
3A2
330
3A5
330
3CE
330
3CF
330
3A4
330
3D0
330
3D1
330
3D2
 75
     1
 76
     0
 52
45.0
 41
0.1
 77
     0
 78
     1
 53
45.0
 43
0.0
 44
0.0
 45
-0.0707106781186548
 46
0.0707106781186548
 79
     0
 98
        1
 10
0.0
 20
0.0
  0
HATCH
  5
45C
330
71
100
AcDbEntity
  8
1
  6
Continuous
 62
     2
100
AcDbHatch
 10
0.0
 20
0.0
 30
0.0
210
0.0
220
0.0
230
1.0
  2
_USER
 70
     0
 71
     1
 91
        1
 92
        1
 93
       10
 72
     1
 10
164.9696443415219
 20
792.310294787843
 11
163.7291399312679
 21
793.6190702980482
 72
     1
 10
163.7291399312679
 20
793.6190702980482
 11
162.5363472291014
 21
793.6190702980482
 72
     1
 10
162.5363472291014
 20
793.6190702980482
 11
162.5363472291014
 21
790.565260774237
 72
     1
 10
162.5363472291014
 20
790.565260774237
 11
163.7291399312679
 21
790.565260774237
 72
     1
 10
163.7291399312679
 20
790.565260774237
 11
163.7291399312679
 21
791.8740362844417
 72
     1
 10
163.7291399312679
 20
791.8740362844417
 11
164.9696443415219
 21
790.565260774237
 72
     1
 10
164.9696443415219
 20
790.565260774237
 11
166.1624370436885
 21
790.565260774237
 72
     1
 10
166.1624370436885
 20
790.565260774237
 11
166.1624370436885
 21
793.6190702980482
 72
     1
 10
166.1624370436885
 20
793.6190702980482
 11
164.9696443415219
 21
793.6190702980482
 72
     1
 10
164.9696443415219
 20
793.6190702980482
 11
164.9696443415219
 21
792.310294787843
 97
       10
330
3D8
330
3A0
330
39F
330
3D9
330
39E
330
3D4
330
3D5
330
3D6
330
3D7
330
3A1
 75
     1
 76
     0
 52
45.0
 41
0.1
 77
     0
 78
     1
 53
45.0
 43
0.0
 44
0.0
 45
-0.0707106781186548
 46
0.0707106781186548
 79
     0
 98
        1
 10
0.0
 20
0.0
  0
HATCH
  5
45D
330
71
100
AcDbEntity
  8
1
  6
Continuous
 62
     2
100
AcDbHatch
 10
0.0
 20
0.0
 30
0.0
210
0.0
220
0.0
230
1.0
  2
_USER
 70
     0
 71
     1
 91
        1
 92
        1
 93
       10
 72
     1
 10
164.9696443415219
 20
792.310294787843
 11
163.7291399312679
 21
793.6190702980482
 72
     1
 10
163.7291399312679
 20
793.6190702980482
 11
162.5363472291014
 21
793.6190702980482
 72
     1
 10
162.5363472291014
 20
793.6190702980482
 11
162.5363472291014
 21
790.565260774237
 72
     1
 10
162.5363472291014
 20
790.565260774237
 11
163.7291399312679
 21
790.565260774237
 72
     1
 10
163.7291399312679
 20
790.565260774237
 11
163.7291399312679
 21
791.8740362844417
 72
     1
 10
163.7291399312679
 20
791.8740362844417
 11
164.9696443415219
 21
790.565260774237
 72
     1
 10
164.9696443415219
 20
790.565260774237
 11
166.1624370436885
 21
790.565260774237
 72
     1
 10
166.1624370436885
 20
790.565260774237
 11
166.1624370436885
 21
793.6190702980482
 72
     1
 10
166.1624370436885
 20
793.6190702980482
 11
164.9696443415219
 21
793.6190702980482
 72
     1
 10
164.9696443415219
 20
793.6190702980482
 11
164.9696443415219
 21
792.310294787843
 97
       10
330
3D8
330
3A0
330
39F
330
3D9
330
39E
330
3D4
330
3D5
330
3D6
330
3D7
330
3A1
 75
     1
 76
     0
 52
45.0
 41
0.1
 77
     0
 78
     1
 53
45.0
 43
0.0
 44
0.0
 45
-0.0707106781186548
 46
0.0707106781186548
 79
     0
 98
        1
 10
0.0
 20
0.0
  0
HATCH
  5
45E
330
71
100
AcDbEntity
  8
1
  6
Continuous
 62
     2
100
AcDbHatch
 10
0.0
 20
0.0
 30
0.0
210
0.0
220
0.0
230
1.0
  2
_USER
 70
     0
 71
     1
 91
        1
 92
        1
 93
        8
 72
     1
 10
163.8721241246424
 20
790.2598798218737
 11
161.0571333475288
 21
790.2598798218737
 72
     1
 10
161.0571333475288
 20
790.2598798218737
 11
161.0571333475288
 21
789.4746145157502
 72
     1
 10
161.0571333475288
 20
789.4746145157502
 11
161.8682323850034
 21
789.4746145157502
 72
     1
 10
161.8682323850034
 20
789.4746145157502
 11
161.8682323850034
 21
787.2060702980627
 72
     1
 10
161.8682323850034
 20
787.2060702980627
 11
163.0610250871699
 21
787.2060702980627
 72
     1
 10
163.0610250871699
 20
787.2060702980627
 11
163.0610250871699
 21
789.4746145157502
 72
     1
 10
163.0610250871699
 20
789.4746145157502
 11
163.8721241246424
 21
789.4746145157502
 72
     1
 10
163.8721241246424
 20
789.4746145157502
 11
163.8721241246424
 21
790.2598798218737
 97
        8
330
39A
330
3DA
330
399
330
3DB
330
3DC
330
39D
330
39C
330
39B
 75
     1
 76
     0
 52
45.0
 41
0.1
 77
     0
 78
     1
 53
45.0
 43
0.0
 44
0.0
 45
-0.0707106781186548
 46
0.0707106781186548
 79
     0
 98
        1
 10
0.0
 20
0.0
  0
HATCH
  5
45F
330
71
100
AcDbEntity
  8
1
  6
Continuous
 62
     2
100
AcDbHatch
 10
0.0
 20
0.0
 30
0.0
210
0.0
220
0.0
230
1.0
  2
_USER
 70
     0
 71
     1
 91
        1
 92
        1
 93
        8
 72
     1
 10
163.8721241246424
 20
790.2598798218737
 11
161.0571333475288
 21
790.2598798218737
 72
     1
 10
161.0571333475288
 20
790.2598798218737
 11
161.0571333475288
 21
789.4746145157502
 72
     1
 10
161.0571333475288
 20
789.4746145157502
 11
161.8682323850034
 21
789.4746145157502
 72
     1
 10
161.8682323850034
 20
789.4746145157502
 11
161.8682323850034
 21
787.2060702980627
 72
     1
 10
161.8682323850034
 20
787.2060702980627
 11
163.0610250871699
 21
787.2060702980627
 72
     1
 10
163.0610250871699
 20
787.2060702980627
 11
163.0610250871699
 21
789.4746145157502
 72
     1
 10
163.0610250871699
 20
789.4746145157502
 11
163.8721241246424
 21
789.4746145157502
 72
     1
 10
163.8721241246424
 20
789.4746145157502
 11
163.8721241246424
 21
790.2598798218737
 97
        8
330
39A
330
3DA
330
399
330
3DB
330
3DC
330
39D
330
39C
330
39B
 75
     1
 76
     0
 52
45.0
 41
0.1
 77
     0
 78
     1
 53
45.0
 43
0.0
 44
0.0
 45
-0.0707106781186548
 46
0.0707106781186548
 79
     0
 98
        1
 10
0.0
 20
0.0
  0
HATCH
  5
460
330
71
100
AcDbEntity
  8
1
  6
Continuous
 62
     2
100
AcDbHatch
 10
0.0
 20
0.0
 30
0.0
210
0.0
220
0.0
230
1.0
  2
_USER
 70
     0
 71
     1
 91
        2
 92
        1
 93
        8
 72
     1
 10
166.0105515805894
 20
787.2060702980627
 11
165.7990715271136
 21
787.7470308422805
 72
     1
 10
165.7990715271136
 20
787.7470308422805
 11
164.6666299504398
 21
787.7470308422805
 72
     1
 10
164.6666299504398
 20
787.7470308422805
 11
164.455149896964
 21
787.2060702980627
 72
     1
 10
164.455149896964
 20
787.2060702980627
 11
163.214645486711
 21
787.2060702980627
 72
     1
 10
163.214645486711
 20
787.2060702980627
 11
164.6125985336503
 21
790.2598798218737
 72
     1
 10
164.6125985336503
 20
790.2598798218737
 11
165.853102943903
 21
790.2598798218737
 72
     1
 10
165.853102943903
 20
790.2598798218737
 11
167.2510559908433
 21
787.2060702980627
 72
     1
 10
167.2510559908433
 20
787.2060702980627
 11
166.0105515805894
 21
787.2060702980627
 97
        8
330
3DE
330
3DF
330
396
330
3E0
330
395
330
398
330
3DD
330
397
 92
       16
 93
        3
 72
     1
 10
164.9326855015848
 20
788.4275941075872
 11
165.2328507387772
 21
789.1954090735738
 72
     1
 10
165.2328507387772
 20
789.1954090735738
 11
165.5330159759673
 21
788.4275941075872
 72
     1
 10
165.5330159759673
 20
788.4275941075872
 11
164.9326855015848
 21
788.4275941075872
 97
        3
330
394
330
3E2
330
3E1
 75
     1
 76
     0
 52
45.0
 41
0.1
 77
     0
 78
     1
 53
45.0
 43
0.0
 44
0.0
 45
-0.0707106781186548
 46
0.0707106781186548
 79
     0
 98
        1
 10
0.0
 20
0.0
  0
HATCH
  5
461
330
71
100
AcDbEntity
  8
1
  6
Continuous
 62
     2
100
AcDbHatch
 10
0.0
 20
0.0
 30
0.0
210
0.0
220
0.0
230
1.0
  2
_USER
 70
     0
 71
     1
 91
        2
 92
        1
 93
        8
 72
     1
 10
166.0105515805894
 20
787.2060702980627
 11
165.7990715271136
 21
787.7470308422805
 72
     1
 10
165.7990715271136
 20
787.7470308422805
 11
164.6666299504398
 21
787.7470308422805
 72
     1
 10
164.6666299504398
 20
787.7470308422805
 11
164.455149896964
 21
787.2060702980627
 72
     1
 10
164.455149896964
 20
787.2060702980627
 11
163.214645486711
 21
787.2060702980627
 72
     1
 10
163.214645486711
 20
787.2060702980627
 11
164.6125985336503
 21
790.2598798218737
 72
     1
 10
164.6125985336503
 20
790.2598798218737
 11
165.853102943903
 21
790.2598798218737
 72
     1
 10
165.853102943903
 20
790.2598798218737
 11
167.2510559908433
 21
787.2060702980627
 72
     1
 10
167.2510559908433
 20
787.2060702980627
 11
166.0105515805894
 21
787.2060702980627
 97
        8
330
3DE
330
3DF
330
396
330
3E0
330
395
330
398
330
3DD
330
397
 92
       16
 93
        3
 72
     1
 10
164.9326855015848
 20
788.4275941075872
 11
165.2328507387772
 21
789.1954090735738
 72
     1
 10
165.2328507387772
 20
789.1954090735738
 11
165.5330159759673
 21
788.4275941075872
 72
     1
 10
165.5330159759673
 20
788.4275941075872
 11
164.9326855015848
 21
788.4275941075872
 97
        3
330
394
330
3E2
330
3E1
 75
     1
 76
     0
 52
45.0
 41
0.1
 77
     0
 78
     1
 53
45.0
 43
0.0
 44
0.0
 45
-0.0707106781186548
 46
0.0707106781186548
 79
     0
 98
        1
 10
0.0
 20
0.0
  0
HATCH
  5
462
330
71
100
AcDbEntity
  8
1
  6
Continuous
 62
     2
100
AcDbHatch
 10
0.0
 20
0.0
 30
0.0
210
0.0
220
0.0
230
1.0
  2
_USER
 70
     0
 71
     1
 91
        1
 92
        1
 93
        4
 72
     1
 10
167.6414999943753
 20
790.565260774237
 11
166.4009955841224
 21
790.565260774237
 72
     1
 10
166.4009955841224
 20
790.565260774237
 11
166.4009955841224
 21
793.6190702980482
 72
     1
 10
166.4009955841224
 20
793.6190702980482
 11
167.6414999943753
 21
793.6190702980482
 72
     1
 10
167.6414999943753
 20
793.6190702980482
 11
167.6414999943753
 21
790.565260774237
 97
        4
330
391
330
393
330
3E3
330
392
 75
     1
 76
     0
 52
45.0
 41
0.1
 77
     0
 78
     1
 53
45.0
 43
0.0
 44
0.0
 45
-0.0707106781186548
 46
0.0707106781186548
 79
     0
 98
        1
 10
0.0
 20
0.0
  0
HATCH
  5
463
330
71
100
AcDbEntity
  8
1
  6
Continuous
 62
     2
100
AcDbHatch
 10
0.0
 20
0.0
 30
0.0
210
0.0
220
0.0
230
1.0
  2
_USER
 70
     0
 71
     1
 91
        1
 92
        1
 93
        4
 72
     1
 10
167.6414999943753
 20
790.565260774237
 11
166.4009955841224
 21
790.565260774237
 72
     1
 10
166.4009955841224
 20
790.565260774237
 11
166.4009955841224
 21
793.6190702980482
 72
     1
 10
166.4009955841224
 20
793.6190702980482
 11
167.6414999943753
 21
793.6190702980482
 72
     1
 10
167.6414999943753
 20
793.6190702980482
 11
167.6414999943753
 21
790.565260774237
 97
        4
330
391
330
393
330
3E3
330
392
 75
     1
 76
     0
 52
45.0
 41
0.1
 77
     0
 78
     1
 53
45.0
 43
0.0
 44
0.0
 45
-0.0707106781186548
 46
0.0707106781186548
 79
     0
 98
        1
 10
0.0
 20
0.0
  0
HATCH
  5
464
330
71
100
AcDbEntity
  8
1
  6
Continuous
 62
     2
100
AcDbHatch
 10
0.0
 20
0.0
 30
0.0
210
0.0
220
0.0
230
1.0
  2
_USER
 70
     0
 71
     1
 91
        1
 92
        1
 93
       12
 72
     1
 10
171.8639861600461
 20
793.6190702980482
 11
170.5614565292796
 21
792.146119768012
 72
     1
 10
170.5614565292796
 20
792.146119768012
 11
171.9594095762199
 21
790.565260774237
 72
     1
 10
171.9594095762199
 20
790.565260774237
 11
170.5566853584716
 21
790.565260774237
 72
     1
 10
170.5566853584716
 20
790.565260774237
 11
169.8600944204061
 21
791.3529925595307
 72
     1
 10
169.8600944204061
 20
791.3529925595307
 11
169.1635034823404
 21
790.565260774237
 72
     1
 10
169.1635034823404
 20
790.565260774237
 11
167.7607792645921
 21
790.565260774237
 72
     1
 10
167.7607792645921
 20
790.565260774237
 11
169.1587323115325
 21
792.146119768012
 72
     1
 10
169.1587323115325
 20
792.146119768012
 11
167.856202680765
 21
793.6190702980482
 72
     1
 10
167.856202680765
 20
793.6190702980482
 11
169.2589268985143
 21
793.6190702980482
 72
     1
 10
169.2589268985143
 20
793.6190702980482
 11
169.8600944204061
 21
792.9392469764927
 72
     1
 10
169.8600944204061
 20
792.9392469764927
 11
170.4612619422989
 21
793.6190702980482
 72
     1
 10
170.4612619422989
 20
793.6190702980482
 11
171.8639861600461
 21
793.6190702980482
 97
       12
330
38C
330
38B
330
38A
330
3E7
330
3E8
330
3E4
330
3E5
330
390
330
38F
330
38E
330
38D
330
3E6
 75
     1
 76
     0
 52
45.0
 41
0.1
 77
     0
 78
     1
 53
45.0
 43
0.0
 44
0.0
 45
-0.0707106781186548
 46
0.0707106781186548
 79
     0
 98
        1
 10
0.0
 20
0.0
  0
HATCH
  5
465
330
71
100
AcDbEntity
  8
1
  6
Continuous
 62
     2
100
AcDbHatch
 10
0.0
 20
0.0
 30
0.0
210
0.0
220
0.0
230
1.0
  2
_USER
 70
     0
 71
     1
 91
        1
 92
        1
 93
       12
 72
     1
 10
171.8639861600461
 20
793.6190702980482
 11
170.5614565292796
 21
792.146119768012
 72
     1
 10
170.5614565292796
 20
792.146119768012
 11
171.9594095762199
 21
790.565260774237
 72
     1
 10
171.9594095762199
 20
790.565260774237
 11
170.5566853584716
 21
790.565260774237
 72
     1
 10
170.5566853584716
 20
790.565260774237
 11
169.8600944204061
 21
791.3529925595307
 72
     1
 10
169.8600944204061
 20
791.3529925595307
 11
169.1635034823404
 21
790.565260774237
 72
     1
 10
169.1635034823404
 20
790.565260774237
 11
167.7607792645921
 21
790.565260774237
 72
     1
 10
167.7607792645921
 20
790.565260774237
 11
169.1587323115325
 21
792.146119768012
 72
     1
 10
169.1587323115325
 20
792.146119768012
 11
167.856202680765
 21
793.6190702980482
 72
     1
 10
167.856202680765
 20
793.6190702980482
 11
169.2589268985143
 21
793.6190702980482
 72
     1
 10
169.2589268985143
 20
793.6190702980482
 11
169.8600944204061
 21
792.9392469764927
 72
     1
 10
169.8600944204061
 20
792.9392469764927
 11
170.4612619422989
 21
793.6190702980482
 72
     1
 10
170.4612619422989
 20
793.6190702980482
 11
171.8639861600461
 21
793.6190702980482
 97
       12
330
38C
330
38B
330
38A
330
3E7
330
3E8
330
3E4
330
3E5
330
390
330
38F
330
38E
330
38D
330
3E6
 75
     1
 76
     0
 52
45.0
 41
0.1
 77
     0
 78
     1
 53
45.0
 43
0.0
 44
0.0
 45
-0.0707106781186548
 46
0.0707106781186548
 79
     0
 98
        1
 10
0.0
 20
0.0
  0
HATCH
  5
466
330
71
100
AcDbEntity
  8
1
  6
Continuous
 62
     2
100
AcDbHatch
 10
0.0
 20
0.0
 30
0.0
210
0.0
220
0.0
230
1.0
  2
_USER
 70
     0
 71
     1
 91
        2
 92
        1
 93
        6
 72
     1
 10
152.8462507459001
 20
791.5083390153808
 11
152.0874831581198
 21
791.5083390153808
 72
     1
 10
152.0874831581198
 20
791.5083390153808
 11
152.0874831581198
 21
790.565260774237
 72
     1
 10
152.0874831581198
 20
790.565260774237
 11
150.8469787478657
 21
790.565260774237
 72
     1
 10
150.8469787478657
 20
790.565260774237
 11
150.8469787478657
 21
793.6190702980482
 72
     1
 10
150.8469787478657
 20
793.6190702980482
 11
152.8462507459001
 21
793.6190702980482
 72
     2
 10
152.8462507459001
 20
792.5637046567144
 40
1.055365641333651
 50
270.0
 51
450.0
 73
     0
 97
        6
330
3B4
330
3B3
330
3C0
330
3BF
330
3B5
330
405
 92
       16
 93
        4
 72
     2
 10
152.4047782196617
 20
792.603100627937
 40
0.3528638246712035
 50
270.0
 51
450.0
 73
     1
 72
     1
 10
152.4047782196617
 20
792.9559644526081
 11
152.0874831581198
 21
792.9559644526081
 72
     1
 10
152.0874831581198
 20
792.9559644526081
 11
152.0874831581198
 21
792.2502368032658
 72
     1
 10
152.0874831581198
 20
792.2502368032658
 11
152.4047782196617
 21
792.2502368032658
 97
        4
330
419
330
3B1
330
3C1
330
3B2
 75
     1
 76
     0
 52
45.0
 41
0.1
 77
     0
 78
     1
 53
45.0
 43
0.0
 44
0.0
 45
-0.0707106781186548
 46
0.0707106781186548
 79
     0
 98
        1
 10
0.0
 20
0.0
  0
HATCH
  5
467
330
71
100
AcDbEntity
  8
1
  6
Continuous
 62
     2
100
AcDbHatch
 10
0.0
 20
0.0
 30
0.0
210
0.0
220
0.0
230
1.0
  2
_USER
 70
     0
 71
     1
 91
        2
 92
        1
 93
        6
 72
     1
 10
152.8462507459001
 20
791.5083390153808
 11
152.0874831581198
 21
791.5083390153808
 72
     1
 10
152.0874831581198
 20
791.5083390153808
 11
152.0874831581198
 21
790.565260774237
 72
     1
 10
152.0874831581198
 20
790.565260774237
 11
150.8469787478657
 21
790.565260774237
 72
     1
 10
150.8469787478657
 20
790.565260774237
 11
150.8469787478657
 21
793.6190702980482
 72
     1
 10
150.8469787478657
 20
793.6190702980482
 11
152.8462507459001
 21
793.6190702980482
 72
     2
 10
152.8462507459001
 20
792.5637046567144
 40
1.055365641333651
 50
270.0
 51
450.0
 73
     0
 97
        6
330
3B4
330
3B3
330
3C0
330
3BF
330
3B5
330
405
 92
       16
 93
        4
 72
     2
 10
152.4047782196617
 20
792.603100627937
 40
0.3528638246712035
 50
270.0
 51
450.0
 73
     1
 72
     1
 10
152.4047782196617
 20
792.9559644526081
 11
152.0874831581198
 21
792.9559644526081
 72
     1
 10
152.0874831581198
 20
792.9559644526081
 11
152.0874831581198
 21
792.2502368032658
 72
     1
 10
152.0874831581198
 20
792.2502368032658
 11
152.4047782196617
 21
792.2502368032658
 97
        4
330
419
330
3B1
330
3C1
330
3B2
 75
     1
 76
     0
 52
45.0
 41
0.1
 77
     0
 78
     1
 53
45.0
 43
0.0
 44
0.0
 45
-0.0707106781186548
 46
0.0707106781186548
 79
     0
 98
        1
 10
0.0
 20
0.0
  0
HATCH
  5
468
330
71
100
AcDbEntity
  8
1
  6
Continuous
 62
     2
100
AcDbHatch
 10
0.0
 20
0.0
 30
0.0
210
0.0
220
0.0
230
1.0
  2
_USER
 70
     0
 71
     1
 91
        2
 92
        1
 93
        4
 72
     2
 10
155.4027934942592
 20
788.1944000496652
 40
2.065479772208543
 50
62.451851824306
 51
117.5481481756674
 73
     1
 72
     2
 10
155.1218536024259
 20
788.732975059968
 40
1.458034083651465
 50
117.548148175663
 51
242.451851824337
 73
     1
 72
     2
 10
155.4027934942592
 20
789.2715500702712
 40
2.065479772208446
 50
242.4518518243384
 51
297.5481481756882
 73
     1
 72
     2
 10
155.6837333860925
 20
788.732975059968
 40
1.458034083651977
 50
297.5481481757016
 51
422.4518518242985
 73
     1
 97
        4
330
411
330
410
330
412
330
40F
 92
       16
 93
        4
 72
     2
 10
155.2030534579127
 20
788.732975059968
 40
0.7717997786797969
 50
321.8795802028424
 51
398.120419797151
 73
     1
 72
     2
 10
155.4027934942592
 20
788.8897062380885
 40
0.5179085730133126
 50
38.12041979715392
 51
141.8795802028558
 73
     1
 72
     2
 10
155.6025335306053
 20
788.732975059968
 40
0.7717997786795031
 50
141.879580202836
 51
218.1204197971707
 73
     1
 72
     2
 10
155.4027934942592
 20
788.576243881848
 40
0.5179085730137754
 50
218.1204197971937
 51
321.8795802027966
 73
     1
 97
        4
330
42D
330
42A
330
42B
330
42C
 75
     1
 76
     0
 52
45.0
 41
0.1
 77
     0
 78
     1
 53
45.0
 43
0.0
 44
0.0
 45
-0.0707106781186548
 46
0.0707106781186548
 79
     0
 98
        1
 10
0.0
 20
0.0
  0
HATCH
  5
469
330
71
100
AcDbEntity
  8
1
  6
Continuous
 62
     2
100
AcDbHatch
 10
0.0
 20
0.0
 30
0.0
210
0.0
220
0.0
230
1.0
  2
_USER
 70
     0
 71
     1
 91
        2
 92
        1
 93
        4
 72
     2
 10
155.4027934942592
 20
788.1944000496652
 40
2.065479772208543
 50
62.451851824306
 51
117.5481481756674
 73
     1
 72
     2
 10
155.1218536024259
 20
788.732975059968
 40
1.458034083651465
 50
117.548148175663
 51
242.451851824337
 73
     1
 72
     2
 10
155.4027934942592
 20
789.2715500702712
 40
2.065479772208446
 50
242.4518518243384
 51
297.5481481756882
 73
     1
 72
     2
 10
155.6837333860925
 20
788.732975059968
 40
1.458034083651977
 50
297.5481481757016
 51
422.4518518242985
 73
     1
 97
        4
330
411
330
410
330
412
330
40F
 92
       16
 93
        4
 72
     2
 10
155.2030534579127
 20
788.732975059968
 40
0.7717997786797969
 50
321.8795802028424
 51
398.120419797151
 73
     1
 72
     2
 10
155.4027934942592
 20
788.8897062380885
 40
0.5179085730133126
 50
38.12041979715392
 51
141.8795802028558
 73
     1
 72
     2
 10
155.6025335306053
 20
788.732975059968
 40
0.7717997786795031
 50
141.879580202836
 51
218.1204197971707
 73
     1
 72
     2
 10
155.4027934942592
 20
788.576243881848
 40
0.5179085730137754
 50
218.1204197971937
 51
321.8795802027966
 73
     1
 97
        4
330
42D
330
42A
330
42B
330
42C
 75
     1
 76
     0
 52
45.0
 41
0.1
 77
     0
 78
     1
 53
45.0
 43
0.0
 44
0.0
 45
-0.0707106781186548
 46
0.0707106781186548
 79
     0
 98
        1
 10
0.0
 20
0.0
  0
HATCH
  5
46A
330
71
100
AcDbEntity
  8
1
  6
Continuous
 62
     2
100
AcDbHatch
 10
0.0
 20
0.0
 30
0.0
210
0.0
220
0.0
230
1.0
  2
_USER
 70
     0
 71
     1
 91
        2
 92
        1
 93
       12
 72
     1
 10
162.2977886886685
 20
792.9210566926051
 11
160.9618608622408
 21
792.9210566926051
 72
     1
 10
160.9618608622408
 20
792.9210566926051
 11
160.9618608622408
 21
792.4411723388635
 72
     1
 10
160.9618608622408
 20
792.4411723388635
 11
162.2977886886685
 21
792.4411723388635
 72
     1
 10
162.2977886886685
 20
792.4411723388635
 11
162.2977886886685
 21
791.7431587334212
 72
     1
 10
162.2977886886685
 20
791.7431587334212
 11
160.9618608622408
 21
791.7431587334212
 72
     1
 10
160.9618608622408
 20
791.7431587334212
 11
160.9618608622408
 21
791.2632743796795
 72
     1
 10
160.9618608622408
 20
791.2632743796795
 11
162.2977886886685
 21
791.2632743796795
 72
     1
 10
162.2977886886685
 20
791.2632743796795
 11
162.2977886886685
 21
790.565260774237
 72
     1
 10
162.2977886886685
 20
790.565260774237
 11
159.1474689648875
 21
790.565260774237
 72
     2
 10
159.1474689648875
 20
792.0921655361423
 40
1.526904761905939
 50
90.0
 51
270.0
 73
     0
 72
     1
 10
159.1474689648875
 20
793.6190702980482
 11
162.2977886886685
 21
793.6190702980482
 72
     1
 10
162.2977886886685
 20
793.6190702980482
 11
162.2977886886685
 21
792.9210566926051
 97
       12
330
3C8
330
41A
330
3C9
330
3CA
330
3CB
330
3CC
330
3A9
330
3A8
330
3A7
330
3A6
330
3CD
330
3C7
 92
       16
 93
        4
 72
     2
 10
159.3637409750527
 20
792.2488967142627
 40
0.5179085730135616
 50
38.12041979714829
 51
141.8795802028459
 73
     1
 72
     2
 10
159.563481011399
 20
792.0921655361423
 40
0.7717997786797298
 50
141.8795802028384
 51
218.1204197971549
 73
     1
 72
     2
 10
159.3637409750527
 20
791.9354343580219
 40
0.5179085730134946
 50
218.1204197971541
 51
321.8795802028517
 73
     1
 72
     2
 10
159.1640009387065
 20
792.0921655361423
 40
0.7717997786796597
 50
321.879580202845
 51
398.1204197971616
 73
     1
 97
        4
330
414
330
413
330
40E
330
40D
 75
     1
 76
     0
 52
45.0
 41
0.1
 77
     0
 78
     1
 53
45.0
 43
0.0
 44
0.0
 45
-0.0707106781186548
 46
0.0707106781186548
 79
     0
 98
        1
 10
0.0
 20
0.0
  0
HATCH
  5
46B
330
71
100
AcDbEntity
  8
1
  6
Continuous
 62
     2
100
AcDbHatch
 10
0.0
 20
0.0
 30
0.0
210
0.0
220
0.0
230
1.0
  2
_USER
 70
     0
 71
     1
 91
        2
 92
        1
 93
       12
 72
     1
 10
162.2977886886685
 20
792.9210566926051
 11
160.9618608622408
 21
792.9210566926051
 72
     1
 10
160.9618608622408
 20
792.9210566926051
 11
160.9618608622408
 21
792.4411723388635
 72
     1
 10
160.9618608622408
 20
792.4411723388635
 11
162.2977886886685
 21
792.4411723388635
 72
     1
 10
162.2977886886685
 20
792.4411723388635
 11
162.2977886886685
 21
791.7431587334212
 72
     1
 10
162.2977886886685
 20
791.7431587334212
 11
160.9618608622408
 21
791.7431587334212
 72
     1
 10
160.9618608622408
 20
791.7431587334212
 11
160.9618608622408
 21
791.2632743796795
 72
     1
 10
160.9618608622408
 20
791.2632743796795
 11
162.2977886886685
 21
791.2632743796795
 72
     1
 10
162.2977886886685
 20
791.2632743796795
 11
162.2977886886685
 21
790.565260774237
 72
     1
 10
162.2977886886685
 20
790.565260774237
 11
159.1474689648875
 21
790.565260774237
 72
     2
 10
159.1474689648875
 20
792.0921655361423
 40
1.526904761905939
 50
90.0
 51
270.0
 73
     0
 72
     1
 10
159.1474689648875
 20
793.6190702980482
 11
162.2977886886685
 21
793.6190702980482
 72
     1
 10
162.2977886886685
 20
793.6190702980482
 11
162.2977886886685
 21
792.9210566926051
 97
       12
330
3C8
330
41A
330
3C9
330
3CA
330
3CB
330
3CC
330
3A9
330
3A8
330
3A7
330
3A6
330
3CD
330
3C7
 92
       16
 93
        4
 72
     2
 10
159.3637409750527
 20
792.2488967142627
 40
0.5179085730135616
 50
38.12041979714829
 51
141.8795802028459
 73
     1
 72
     2
 10
159.563481011399
 20
792.0921655361423
 40
0.7717997786797298
 50
141.8795802028384
 51
218.1204197971549
 73
     1
 72
     2
 10
159.3637409750527
 20
791.9354343580219
 40
0.5179085730134946
 50
218.1204197971541
 51
321.8795802028517
 73
     1
 72
     2
 10
159.1640009387065
 20
792.0921655361423
 40
0.7717997786796597
 50
321.879580202845
 51
398.1204197971616
 73
     1
 97
        4
330
414
330
413
330
40E
330
40D
 75
     1
 76
     0
 52
45.0
 41
0.1
 77
     0
 78
     1
 53
45.0
 43
0.0
 44
0.0
 45
-0.0707106781186548
 46
0.0707106781186548
 79
     0
 98
        1
 10
0.0
 20
0.0
  0
HATCH
  5
46C
330
71
100
AcDbEntity
  8
1
  6
Continuous
 62
     2
100
AcDbHatch
 10
0.0
 20
0.0
 30
0.0
210
0.0
220
0.0
230
1.0
  2
_USER
 70
     0
 71
     1
 91
        4
 92
        1
 93
        8
 72
     1
 10
150.3698616669988
 20
793.1948256826462
 11
150.3698616669988
 21
787.630314913446
 72
     2
 10
149.945617051615
 20
787.630314913446
 40
0.4242446153832589
 50
0.0
 51
90.0
 73
     0
 72
     1
 10
149.945617051615
 20
787.2060702980627
 11
144.4723049608982
 21
787.2060702980627
 72
     2
 10
144.4723049608982
 20
787.630314913446
 40
0.4242446153828041
 50
90.0
 51
180.0
 73
     0
 72
     1
 10
144.0480603455154
 20
787.630314913446
 11
144.0480603455154
 21
793.1948256826462
 72
     2
 10
144.4723049608982
 20
793.1948256826462
 40
0.4242446153838273
 50
180.0
 51
270.0
 73
     0
 72
     1
 10
144.4723049608982
 20
793.61907029803
 11
149.945617051615
 21
793.61907029803
 72
     2
 10
149.945617051615
 20
793.1948256826462
 40
0.4242446153837989
 50
270.0
 51
360.0
 73
     0
 97
        8
330
3BC
330
40A
330
3BD
330
415
330
3BA
330
40C
330
3BB
330
40B
 92
       16
 93
        1
 72
     2
 10
147.0918906114157
 20
790.8759434542907
 40
0.4709789327785074
 50
0.0
 51
360.0
 73
     1
 97
        1
330
430
 92
       16
 93
        8
 72
     2
 10
147.6417483241764
 20
789.7668018543222
 40
0.3157169230765964
 50
115.3740086783521
 51
180.0
 73
     1
 72
     1
 10
147.3260314010996
 20
789.7668018543222
 11
147.3260314010996
 21
789.1849504476272
 72
     2
 10
147.6417483241764
 20
789.1849504476272
 40
0.315716923076792
 50
180.0
 51
269.811032957449
 73
     1
 72
     2
 10
147.6473644594864
 20
790.8877853951961
 40
2.018561131933266
 50
269.8110329575858
 51
450.1889670424142
 73
     1
 72
     2
 10
147.6417483241764
 20
792.5906203427653
 40
0.3157169230760143
 50
90.18896704255111
 51
180.0
 73
     1
 72
     1
 10
147.3260314010996
 20
792.5906203427653
 11
147.3260314010996
 21
791.9850850542584
 72
     2
 10
147.6417483241764
 20
791.9850850542584
 40
0.315716923076792
 50
180.0
 51
244.625991321639
 73
     1
 72
     2
 10
147.1157056260885
 20
790.8759434542907
 40
0.9118481501444333
 50
295.3740086781925
 51
424.6259913218228
 73
     0
 97
        8
330
422
330
383
330
41F
330
420
330
3FE
330
382
330
421
330
3FD
 92
       16
 93
       12
 72
     2
 10
145.0661996376446
 20
788.2343427766963
 40
0.3157169230755983
 50
180.0
 51
270.0
 73
     1
 72
     1
 10
145.0661996376446
 20
787.9186258536196
 11
146.5420328986543
 21
787.9186258536196
 72
     2
 10
146.5420328986543
 20
788.2343427766963
 40
0.3157169230767067
 50
270.0
 51
360.0
 73
     1
 72
     1
 10
146.8577498217309
 20
788.2343427766963
 11
146.8577498217309
 21
789.7651137082279
 72
     2
 10
146.5420328986543
 20
789.7651137082279
 40
0.315716923076593
 50
0.0
 51
64.80558935146468
 73
     1
 72
     2
 10
147.0646173462293
 20
790.8759434542907
 40
0.911897523557601
 50
115.1944106485154
 51
244.8055893514694
 73
     0
 72
     2
 10
146.5420328986543
 20
791.9867732003529
 40
0.3157169230761717
 50
295.1944106485354
 51
360.0
 73
     1
 72
     1
 10
146.8577498217309
 20
791.9867732003529
 11
146.8577498217309
 21
792.5907978194134
 72
     2
 10
146.5420328986543
 20
792.5907978194134
 40
0.315716923076593
 50
0.0
 51
90.0
 73
     1
 72
     1
 10
146.5420328986543
 20
792.9065147424895
 11
145.0661996376446
 21
792.9065147424895
 72
     2
 10
145.0661996376446
 20
792.5907978194134
 40
0.3157169230761383
 50
90.0
 51
180.0
 73
     1
 72
     1
 10
144.750482714569
 20
792.5907978194134
 11
144.750482714569
 21
788.2343427766963
 97
       12
330
406
330
3BE
330
409
330
3B9
330
416
330
417
330
408
330
3B8
330
407
330
3B7
330
418
330
3B6
 75
     1
 76
     0
 52
45.0
 41
0.1
 77
     0
 78
     1
 53
45.0
 43
0.0
 44
0.0
 45
-0.0707106781186548
 46
0.0707106781186548
 79
     0
 98
        1
 10
0.0
 20
0.0
  0
HATCH
  5
46D
330
71
100
AcDbEntity
  8
1
  6
Continuous
 62
     2
100
AcDbHatch
 10
0.0
 20
0.0
 30
0.0
210
0.0
220
0.0
230
1.0
  2
_USER
 70
     0
 71
     1
 91
        4
 92
        1
 93
        8
 72
     1
 10
150.3698616669988
 20
793.1948256826462
 11
150.3698616669988
 21
787.630314913446
 72
     2
 10
149.945617051615
 20
787.630314913446
 40
0.4242446153832589
 50
0.0
 51
90.0
 73
     0
 72
     1
 10
149.945617051615
 20
787.2060702980627
 11
144.4723049608982
 21
787.2060702980627
 72
     2
 10
144.4723049608982
 20
787.630314913446
 40
0.4242446153828041
 50
90.0
 51
180.0
 73
     0
 72
     1
 10
144.0480603455154
 20
787.630314913446
 11
144.0480603455154
 21
793.1948256826462
 72
     2
 10
144.4723049608982
 20
793.1948256826462
 40
0.4242446153838273
 50
180.0
 51
270.0
 73
     0
 72
     1
 10
144.4723049608982
 20
793.61907029803
 11
149.945617051615
 21
793.61907029803
 72
     2
 10
149.945617051615
 20
793.1948256826462
 40
0.4242446153837989
 50
270.0
 51
360.0
 73
     0
 97
        8
330
3BC
330
40A
330
3BD
330
415
330
3BA
330
40C
330
3BB
330
40B
 92
       16
 93
        1
 72
     2
 10
147.0918906114157
 20
790.8759434542907
 40
0.4709789327785074
 50
0.0
 51
360.0
 73
     1
 97
        1
330
430
 92
       16
 93
        8
 72
     2
 10
147.6417483241764
 20
789.7668018543222
 40
0.3157169230765964
 50
115.3740086783521
 51
180.0
 73
     1
 72
     1
 10
147.3260314010996
 20
789.7668018543222
 11
147.3260314010996
 21
789.1849504476272
 72
     2
 10
147.6417483241764
 20
789.1849504476272
 40
0.315716923076792
 50
180.0
 51
269.811032957449
 73
     1
 72
     2
 10
147.6473644594864
 20
790.8877853951961
 40
2.018561131933266
 50
269.8110329575858
 51
450.1889670424142
 73
     1
 72
     2
 10
147.6417483241764
 20
792.5906203427653
 40
0.3157169230760143
 50
90.18896704255111
 51
180.0
 73
     1
 72
     1
 10
147.3260314010996
 20
792.5906203427653
 11
147.3260314010996
 21
791.9850850542584
 72
     2
 10
147.6417483241764
 20
791.9850850542584
 40
0.315716923076792
 50
180.0
 51
244.625991321639
 73
     1
 72
     2
 10
147.1157056260885
 20
790.8759434542907
 40
0.9118481501444333
 50
295.3740086781925
 51
424.6259913218228
 73
     0
 97
        8
330
422
330
383
330
41F
330
420
330
3FE
330
382
330
421
330
3FD
 92
       16
 93
       12
 72
     2
 10
145.0661996376446
 20
788.2343427766963
 40
0.3157169230755983
 50
180.0
 51
270.0
 73
     1
 72
     1
 10
145.0661996376446
 20
787.9186258536196
 11
146.5420328986543
 21
787.9186258536196
 72
     2
 10
146.5420328986543
 20
788.2343427766963
 40
0.3157169230767067
 50
270.0
 51
360.0
 73
     1
 72
     1
 10
146.8577498217309
 20
788.2343427766963
 11
146.8577498217309
 21
789.7651137082279
 72
     2
 10
146.5420328986543
 20
789.7651137082279
 40
0.315716923076593
 50
0.0
 51
64.80558935146468
 73
     1
 72
     2
 10
147.0646173462293
 20
790.8759434542907
 40
0.911897523557601
 50
115.1944106485154
 51
244.8055893514694
 73
     0
 72
     2
 10
146.5420328986543
 20
791.9867732003529
 40
0.3157169230761717
 50
295.1944106485354
 51
360.0
 73
     1
 72
     1
 10
146.8577498217309
 20
791.9867732003529
 11
146.8577498217309
 21
792.5907978194134
 72
     2
 10
146.5420328986543
 20
792.5907978194134
 40
0.315716923076593
 50
0.0
 51
90.0
 73
     1
 72
     1
 10
146.5420328986543
 20
792.9065147424895
 11
145.0661996376446
 21
792.9065147424895
 72
     2
 10
145.0661996376446
 20
792.5907978194134
 40
0.3157169230761383
 50
90.0
 51
180.0
 73
     1
 72
     1
 10
144.750482714569
 20
792.5907978194134
 11
144.750482714569
 21
788.2343427766963
 97
       12
330
406
330
3BE
330
409
330
3B9
330
416
330
417
330
408
330
3B8
330
407
330
3B7
330
418
330
3B6
 75
     1
 76
     0
 52
45.0
 41
0.1
 77
     0
 78
     1
 53
45.0
 43
0.0
 44
0.0
 45
-0.0707106781186548
 46
0.0707106781186548
 79
     0
 98
        1
 10
0.0
 20
0.0
  0
HATCH
  5
46E
330
71
100
AcDbEntity
  8
1
  6
Continuous
 62
     2
100
AcDbHatch
 10
0.0
 20
0.0
 30
0.0
210
0.0
220
0.0
230
1.0
  2
_USER
 70
     0
 71
     1
 91
        1
 92
        1
 93
       18
 72
     1
 10
171.9594095762199
 20
789.4746145157502
 11
171.1483105387465
 21
789.4746145157502
 72
     1
 10
171.1483105387465
 20
789.4746145157502
 11
171.1483105387465
 21
787.2060702980627
 72
     1
 10
171.1483105387465
 20
787.2060702980627
 11
169.9555178365788
 21
787.2060702980627
 72
     1
 10
169.9555178365788
 20
787.2060702980627
 11
169.9555178365788
 21
789.4746145157502
 72
     1
 10
169.9555178365788
 20
789.4746145157502
 11
168.8518785370107
 21
789.4746145157502
 72
     2
 10
168.8518785370107
 20
788.5200915089241
 40
0.9545230068260935
 50
90.0
 51
109.3371432194304
 73
     1
 72
     2
 10
168.705208538907
 20
788.938046489307
 40
0.5115800601944048
 50
109.3371432194823
 51
151.4785267424182
 73
     1
 72
     2
 10
169.0825657969884
 20
788.732975059968
 40
0.941059735334906
 50
151.4785267423609
 51
208.5214732576695
 73
     1
 72
     2
 10
168.705208538907
 20
788.5279036306295
 40
0.5115800601959695
 50
208.5214732576826
 51
246.6277221118453
 73
     1
 72
     2
 10
168.8616485716101
 20
788.8898956493395
 40
0.9059297849852166
 50
246.6277221118185
 51
288.4480761180828
 73
     1
 72
     2
 10
168.4434808379482
 20
790.1434414253761
 40
2.227384008972719
 50
288.4480761181337
 51
301.9309089499401
 73
     1
 72
     1
 10
169.6215358799721
 20
788.2530907062263
 11
169.6215358799721
 21
787.3805736994229
 72
     2
 10
168.2856079628554
 20
792.0456560052244
 40
4.852596863498822
 50
74.0200087416617
 51
84.84185523036402
 73
     0
 72
     2
 10
168.5744640575912
 20
788.8457654220028
 40
1.639695123940421
 50
84.84185523032396
 51
164.9381082228985
 73
     0
 72
     2
 10
168.1553362141296
 20
788.732975059968
 40
1.20565616839296
 50
164.938108222905
 51
195.061891777095
 73
     0
 72
     2
 10
168.5744640575912
 20
788.620184697933
 40
1.639695123940214
 50
195.0618917771053
 51
270.0
 73
     0
 72
     1
 10
168.5744640575912
 20
790.2598798218733
 11
171.9594095762199
 21
790.2598798218737
 72
     1
 10
171.9594095762199
 20
790.2598798218737
 11
171.9594095762199
 21
789.4746145157502
 97
       18
330
385
330
41B
330
41C
330
404
330
403
330
3E9
330
402
330
401
330
41D
330
400
330
41E
330
3FF
330
3EA
330
384
330
389
330
388
330
387
330
386
 75
     1
 76
     0
 52
45.0
 41
0.1
 77
     0
 78
     1
 53
45.0
 43
0.0
 44
0.0
 45
-0.0707106781186548
 46
0.0707106781186548
 79
     0
 98
        1
 10
0.0
 20
0.0
  0
HATCH
  5
46F
330
71
100
AcDbEntity
  8
1
  6
Continuous
 62
     2
100
AcDbHatch
 10
0.0
 20
0.0
 30
0.0
210
0.0
220
0.0
230
1.0
  2
_USER
 70
     0
 71
     1
 91
        1
 92
        1
 93
       18
 72
     1
 10
171.9594095762199
 20
789.4746145157502
 11
171.1483105387465
 21
789.4746145157502
 72
     1
 10
171.1483105387465
 20
789.4746145157502
 11
171.1483105387465
 21
787.2060702980627
 72
     1
 10
171.1483105387465
 20
787.2060702980627
 11
169.9555178365788
 21
787.2060702980627
 72
     1
 10
169.9555178365788
 20
787.2060702980627
 11
169.9555178365788
 21
789.4746145157502
 72
     1
 10
169.9555178365788
 20
789.4746145157502
 11
168.8518785370107
 21
789.4746145157502
 72
     2
 10
168.8518785370107
 20
788.5200915089241
 40
0.9545230068260935
 50
90.0
 51
109.3371432194304
 73
     1
 72
     2
 10
168.705208538907
 20
788.938046489307
 40
0.5115800601944048
 50
109.3371432194823
 51
151.4785267424182
 73
     1
 72
     2
 10
169.0825657969884
 20
788.732975059968
 40
0.941059735334906
 50
151.4785267423609
 51
208.5214732576695
 73
     1
 72
     2
 10
168.705208538907
 20
788.5279036306295
 40
0.5115800601959695
 50
208.5214732576826
 51
246.6277221118453
 73
     1
 72
     2
 10
168.8616485716101
 20
788.8898956493395
 40
0.9059297849852166
 50
246.6277221118185
 51
288.4480761180828
 73
     1
 72
     2
 10
168.4434808379482
 20
790.1434414253761
 40
2.227384008972719
 50
288.4480761181337
 51
301.9309089499401
 73
     1
 72
     1
 10
169.6215358799721
 20
788.2530907062263
 11
169.6215358799721
 21
787.3805736994229
 72
     2
 10
168.2856079628554
 20
792.0456560052244
 40
4.852596863498822
 50
74.0200087416617
 51
84.84185523036402
 73
     0
 72
     2
 10
168.5744640575912
 20
788.8457654220028
 40
1.639695123940421
 50
84.84185523032396
 51
164.9381082228985
 73
     0
 72
     2
 10
168.1553362141296
 20
788.732975059968
 40
1.20565616839296
 50
164.938108222905
 51
195.061891777095
 73
     0
 72
     2
 10
168.5744640575912
 20
788.620184697933
 40
1.639695123940214
 50
195.0618917771053
 51
270.0
 73
     0
 72
     1
 10
168.5744640575912
 20
790.2598798218733
 11
171.9594095762199
 21
790.2598798218737
 72
     1
 10
171.9594095762199
 20
790.2598798218737
 11
171.9594095762199
 21
789.4746145157502
 97
       18
330
385
330
41B
330
41C
330
404
330
403
330
3E9
330
402
330
401
330
41D
330
400
330
41E
330
3FF
330
3EA
330
384
330
389
330
388
330
387
330
386
 75
     1
 76
     0
 52
45.0
 41
0.1
 77
     0
 78
     1
 53
45.0
 43
0.0
 44
0.0
 45
-0.0707106781186548
 46
0.0707106781186548
 79
     0
 98
        1
 10
0.0
 20
0.0
  0
HATCH
  5
470
330
71
100
AcDbEntity
  8
1
  6
Continuous
 62
     2
100
AcDbHatch
 10
0.0
 20
0.0
 30
0.0
210
0.0
220
0.0
230
1.0
  2
_USER
 70
     0
 71
     1
 91
        1
 92
        1
 93
       14
 72
     2
 10
152.4717625783383
 20
788.620184697933
 40
1.639695123940553
 50
84.84185523036649
 51
164.9381082228867
 73
     1
 72
     2
 10
152.0526347348755
 20
788.732975059968
 40
1.205656168390957
 50
164.9381082228794
 51
195.0618917770945
 73
     1
 72
     2
 10
152.4717625783383
 20
788.8457654220028
 40
1.639695123939422
 50
195.0618917770903
 51
275.1581447696353
 73
     1
 72
     2
 10
152.1829064836024
 20
792.0456560052244
 40
4.852596863498157
 50
275.1581447696236
 51
285.979991258353
 73
     1
 72
     1
 10
153.5188344007202
 20
787.3805736994236
 11
153.5188344007202
 21
788.2530907062268
 72
     2
 10
152.3407793586953
 20
790.1434414253766
 40
2.227384008972719
 50
58.06909105003973
 51
71.55192388186632
 73
     0
 72
     2
 10
152.7589470923561
 20
788.8898956493395
 40
0.905929784984867
 50
71.55192388183924
 51
113.3722778881304
 73
     0
 72
     2
 10
152.602507059654
 20
788.5279036306295
 40
0.5115800601947035
 50
113.3722778881664
 51
151.4785267422984
 73
     0
 72
     2
 10
152.9798643177344
 20
788.732975059968
 40
0.9410597353332545
 50
151.4785267422912
 51
208.5214732577331
 73
     0
 72
     2
 10
152.602507059654
 20
788.938046489307
 40
0.5115800601948179
 50
208.5214732577016
 51
246.6277221118083
 73
     0
 72
     2
 10
152.7589470923561
 20
788.5760544705963
 40
0.9059297849853858
 50
246.6277221118725
 51
288.4480761181471
 73
     0
 72
     2
 10
152.3407793586953
 20
787.3225086945598
 40
2.227384008973468
 50
288.4480761181337
 51
301.9309089499603
 73
     0
 72
     1
 10
153.5188344007202
 20
789.2128594137097
 11
153.5188344007202
 21
790.085376420513
 72
     2
 10
152.1829064836024
 20
785.4202941147121
 40
4.85259686349804
 50
74.02000874164729
 51
84.84185523037642
 73
     1
 97
       14
330
423
330
424
330
425
330
426
330
3EB
330
3FC
330
3FB
330
3FA
330
427
330
428
330
3F9
330
429
330
3EC
330
3F8
 75
     1
 76
     0
 52
45.0
 41
0.1
 77
     0
 78
     1
 53
45.0
 43
0.0
 44
0.0
 45
-0.0707106781186548
 46
0.0707106781186548
 79
     0
 98
        1
 10
0.0
 20
0.0
  0
HATCH
  5
471
330
71
100
AcDbEntity
  8
1
  6
Continuous
 62
     2
100
AcDbHatch
 10
0.0
 20
0.0
 30
0.0
210
0.0
220
0.0
230
1.0
  2
_USER
 70
     0
 71
     1
 91
        1
 92
        1
 93
       14
 72
     2
 10
152.4717625783383
 20
788.620184697933
 40
1.639695123940553
 50
84.84185523036649
 51
164.9381082228867
 73
     1
 72
     2
 10
152.0526347348755
 20
788.732975059968
 40
1.205656168390957
 50
164.9381082228794
 51
195.0618917770945
 73
     1
 72
     2
 10
152.4717625783383
 20
788.8457654220028
 40
1.639695123939422
 50
195.0618917770903
 51
275.1581447696353
 73
     1
 72
     2
 10
152.1829064836024
 20
792.0456560052244
 40
4.852596863498157
 50
275.1581447696236
 51
285.979991258353
 73
     1
 72
     1
 10
153.5188344007202
 20
787.3805736994236
 11
153.5188344007202
 21
788.2530907062268
 72
     2
 10
152.3407793586953
 20
790.1434414253766
 40
2.227384008972719
 50
58.06909105003973
 51
71.55192388186632
 73
     0
 72
     2
 10
152.7589470923561
 20
788.8898956493395
 40
0.905929784984867
 50
71.55192388183924
 51
113.3722778881304
 73
     0
 72
     2
 10
152.602507059654
 20
788.5279036306295
 40
0.5115800601947035
 50
113.3722778881664
 51
151.4785267422984
 73
     0
 72
     2
 10
152.9798643177344
 20
788.732975059968
 40
0.9410597353332545
 50
151.4785267422912
 51
208.5214732577331
 73
     0
 72
     2
 10
152.602507059654
 20
788.938046489307
 40
0.5115800601948179
 50
208.5214732577016
 51
246.6277221118083
 73
     0
 72
     2
 10
152.7589470923561
 20
788.5760544705963
 40
0.9059297849853858
 50
246.6277221118725
 51
288.4480761181471
 73
     0
 72
     2
 10
152.3407793586953
 20
787.3225086945598
 40
2.227384008973468
 50
288.4480761181337
 51
301.9309089499603
 73
     0
 72
     1
 10
153.5188344007202
 20
789.2128594137097
 11
153.5188344007202
 21
790.085376420513
 72
     2
 10
152.1829064836024
 20
785.4202941147121
 40
4.85259686349804
 50
74.02000874164729
 51
84.84185523037642
 73
     1
 97
       14
330
423
330
424
330
425
330
426
330
3EB
330
3FC
330
3FB
330
3FA
330
427
330
428
330
3F9
330
429
330
3EC
330
3F8
 75
     1
 76
     0
 52
45.0
 41
0.1
 77
     0
 78
     1
 53
45.0
 43
0.0
 44
0.0
 45
-0.0707106781186548
 46
0.0707106781186548
 79
     0
 98
        1
 10
0.0
 20
0.0
  0
ENDBLK
  5
73
330
71
100
AcDbEntity
  8
0
100
AcDbBlockEnd
  0
BLOCK
  5
75
330
74
100
AcDbEntity
  8
0
100
AcDbBlockBegin
  2
_punkt
 70
     0
 10
269.3562099857028
 20
779.9125702980464
 30
0.0
  3
_punkt
  1

  0
LINE
  5
472
330
74
100
AcDbEntity
  8
1
  6
Continuous
 62
     2
100
AcDbLine
 10
269.3562099857028
 20
779.9125702980464
 30
0.0
 11
274.3562099857018
 21
779.9125702980464
 31
0.0
  0
LINE
  5
473
330
74
100
AcDbEntity
  8
1
  6
Continuous
 62
     2
100
AcDbLine
 10
269.3562099857028
 20
779.9125702980464
 30
0.0
 11
269.3562099857028
 21
774.9125702980463
 31
0.0
  0
ENDBLK
  5
76
330
74
100
AcDbEntity
  8
0
100
AcDbBlockEnd
  0
BLOCK
  5
7A
330
77
100
AcDbEntity
  8
0
100
AcDbBlockBegin
  2
A4I_CS
 70
     0
 10
269.3562099857028
 20
774.9125702980463
 30
0.0
  3
A4I_CS
  1

  0
INSERT
  5
78
330
77
100
AcDbEntity
  8
1
100
AcDbBlockReference
  2
_rahmen
 10
269.3562099857028
 20
774.9125702980463
 30
0.0
  0
INSERT
  5
79
330
77
100
AcDbEntity
  8
1
100
AcDbBlockReference
  2
_punkt
 10
269.3562099857028
 20
779.9125702980464
 30
0.0
  0
ENDBLK
  5
7B
330
77
100
AcDbEntity
  8
0
100
AcDbBlockEnd
  0
BLOCK
  5
84
330
7C
100
AcDbEntity
  8
0
100
AcDbBlockBegin
  2
1
 70
     0
 10
0.0
 20
0.0
 30
0.0
  3
1
  1

  0
INSERT
  5
7D
330
7C
100
AcDbEntity
  8
0
100
AcDbBlockReference
  2
Allg1
 10
235.0000000000005
 20
862.9999999999999
 30
0.0
  0
INSERT
  5
7E
330
7C
100
AcDbEntity
  8
0
100
AcDbBlockReference
  2
Drfsicht2
 10
117.0000004034883
 20
857.0
 30
0.0
  0
INSERT
  5
7F
330
7C
100
AcDbEntity
  8
0
100
AcDbBlockReference
  2
Rckans2
 10
209.412421
 20
938.7625689999998
 30
0.0
  0
INSERT
  5
80
330
7C
100
AcDbEntity
  8
0
100
AcDbBlockReference
  2
SA_Links2
 10
156.9062110000002
 20
938.762569
 30
0.0
  0
INSERT
  5
81
330
7C
100
AcDbEntity
  8
0
100
AcDbBlockReference
  2
SA_Rechts2
 10
17.09378899999948
 20
938.762569
 30
0.0
  0
INSERT
  5
82
330
7C
100
AcDbEntity
  8
0
100
AcDbBlockReference
  2
Vordans2
 10
117.0
 20
938.7625689999998
 30
0.0
  0
INSERT
  5
83
330
7C
100
AcDbEntity
  8
0
100
AcDbBlockReference
  2
A4I_CS
 10
269.3562099857028
 20
774.9125702980463
 30
0.0
  0
ENDBLK
  5
85
330
7C
100
AcDbEntity
  8
0
100
AcDbBlockEnd
  0
BLOCK
  5
181
330
17A
100
AcDbEntity
  8
0
100
AcDbBlockBegin
  2
*D17
 70
     1
 10
0.0
 20
0.0
 30
0.0
  3
*D17
  1

  0
LINE
  5
17B
330
17A
100
AcDbEntity
  8
1
  6
Continuous
 62
     2
100
AcDbLine
 10
68.14379054415394
 20
839.3499997535689
 30
0.0
 11
68.14379054415394
 21
857.0499997537922
 31
0.0
  0
LINE
  5
17C
330
17A
100
AcDbEntity
  8
1
  6
Continuous
 62
     2
100
AcDbLine
 10
80.8580383776821
 20
839.3499997535689
 30
0.0
 11
66.64379054415394
 21
839.3499997535689
 31
0.0
  0
LINE
  5
17D
330
17A
100
AcDbEntity
  8
1
  6
Continuous
 62
     2
100
AcDbLine
 10
78.14379054415394
 20
857.0499997537922
 30
0.0
 11
66.64379054415394
 21
857.0499997537922
 31
0.0
  0
SOLID
  5
17E
330
17A
100
AcDbEntity
  8
1
 62
     2
100
AcDbTrace
 10
67.68300680259806
 20
842.8499997535689
 30
0.0
 11
68.60457428570983
 21
842.8499997535689
 31
0.0
 12
68.14379054415394
 22
839.3499997535689
 32
0.0
 13
68.14379054415394
 23
839.3499997535689
 33
0.0
  0
SOLID
  5
17F
330
17A
100
AcDbEntity
  8
1
 62
     2
100
AcDbTrace
 10
68.60457428570983
 20
853.5499997537922
 30
0.0
 11
67.68300680259806
 21
853.5499997537922
 31
0.0
 12
68.14379054415394
 22
857.0499997537922
 32
0.0
 13
68.14379054415394
 23
857.0499997537922
 33
0.0
  0
MTEXT
  5
180
330
17A
100
AcDbEntity
  8
1
 62
     3
100
AcDbMText
 10
66.29379054415395
 20
844.600743324417
 30
0.0
 40
3.5
 41
0.0
 71
     7
 72
     1
  1
17,7
  7
CONVERTER_11
 11
0.0
 21
1.0
 31
0.0
 73
     1
 44
0.60024009603842
  0
ENDBLK
  5
182
330
17A
100
AcDbEntity
  8
0
100
AcDbBlockEnd
  0
BLOCK
  5
321
330
31A
100
AcDbEntity
  8
0
100
AcDbBlockBegin
  2
*D18
 70
     1
 10
0.0
 20
0.0
 30
0.0
  3
*D18
  1

  0
LINE
  5
31B
330
31A
100
AcDbEntity
  8
1
  6
Continuous
 62
     2
100
AcDbLine
 10
62.1780193667582
 20
900.049999453004
 30
0.0
 11
62.1780193667582
 21
953.4751404530756
 31
0.0
  0
LINE
  5
31C
330
31A
100
AcDbEntity
  8
1
  6
Continuous
 62
     2
100
AcDbLine
 10
83.24375512906363
 20
900.049999453004
 30
0.0
 11
60.6780193667582
 21
900.049999453004
 31
0.0
  0
LINE
  5
31D
330
31A
100
AcDbEntity
  8
1
  6
Continuous
 62
     2
100
AcDbLine
 10
100.6437897859311
 20
953.4751404530756
 30
0.0
 11
60.6780193667582
 21
953.4751404530756
 31
0.0
  0
SOLID
  5
31E
330
31A
100
AcDbEntity
  8
1
 62
     2
100
AcDbTrace
 10
61.71723562520231
 20
903.549999453004
 30
0.0
 11
62.63880310831409
 21
903.549999453004
 31
0.0
 12
62.1780193667582
 22
900.049999453004
 32
0.0
 13
62.1780193667582
 23
900.049999453004
 33
0.0
  0
SOLID
  5
31F
330
31A
100
AcDbEntity
  8
1
 62
     2
100
AcDbTrace
 10
62.63880310831409
 20
949.9751404530756
 30
0.0
 11
61.71723562520231
 21
949.9751404530756
 31
0.0
 12
62.1780193667582
 22
953.4751404530756
 32
0.0
 13
62.1780193667582
 23
953.4751404530756
 33
0.0
  0
MTEXT
  5
320
330
31A
100
AcDbEntity
  8
1
 62
     3
100
AcDbMText
 10
60.32801936675821
 20
923.3989179516489
 30
0.0
 40
3.5
 41
0.0
 71
     7
 72
     1
  1
53,43
  7
CONVERTER_11
 11
0.0
 21
1.0
 31
0.0
 73
     1
 44
0.60024009603842
  0
ENDBLK
  5
322
330
31A
100
AcDbEntity
  8
0
100
AcDbBlockEnd
  0
BLOCK
  5
32C
330
325
100
AcDbEntity
  8
0
100
AcDbBlockBegin
  2
*D19
 70
     1
 10
0.0
 20
0.0
 30
0.0
  3
*D19
  1

  0
LINE
  5
326
330
325
100
AcDbEntity
  8
1
  6
Continuous
 62
     2
100
AcDbLine
 10
70.17801936675819
 20
953.4751404530756
 30
0.0
 11
70.17801936675819
 21
906.8999994530154
 31
0.0
  0
LINE
  5
327
330
325
100
AcDbEntity
  8
1
  6
Continuous
 62
     2
100
AcDbLine
 10
100.6437897859311
 20
953.4751404530756
 30
0.0
 11
68.67801936675819
 21
953.4751404530756
 31
0.0
  0
LINE
  5
328
330
325
100
AcDbEntity
  8
1
  6
Continuous
 62
     2
100
AcDbLine
 10
90.4437900447162
 20
906.8999994530154
 30
0.0
 11
68.67801936675819
 21
906.8999994530154
 31
0.0
  0
SOLID
  5
329
330
325
100
AcDbEntity
  8
1
 62
     2
100
AcDbTrace
 10
70.63880310831408
 20
949.9751404530756
 30
0.0
 11
69.7172356252023
 21
949.9751404530756
 31
0.0
 12
70.17801936675819
 22
953.4751404530756
 32
0.0
 13
70.17801936675819
 23
953.4751404530756
 33
0.0
  0
SOLID
  5
32A
330
325
100
AcDbEntity
  8
1
 62
     2
100
AcDbTrace
 10
69.7172356252023
 20
910.3999994530154
 30
0.0
 11
70.63880310831408
 21
910.3999994530154
 31
0.0
 12
70.17801936675819
 22
906.8999994530154
 32
0.0
 13
70.17801936675819
 23
906.8999994530154
 33
0.0
  0
MTEXT
  5
32B
330
325
100
AcDbEntity
  8
1
 62
     3
100
AcDbMText
 10
68.3280193667582
 20
923.3989179516489
 30
0.0
 40
3.5
 41
0.0
 71
     7
 72
     1
  1
46,58
  7
CONVERTER_11
 11
0.0
 21
1.0
 31
0.0
 73
     1
 44
0.60024009603842
  0
ENDBLK
  5
32D
330
325
100
AcDbEntity
  8
0
100
AcDbBlockEnd
  0
BLOCK
  5
337
330
330
100
AcDbEntity
  8
0
100
AcDbBlockBegin
  2
*D20
 70
     1
 10
0.0
 20
0.0
 30
0.0
  3
*D20
  1

  0
LINE
  5
331
330
330
100
AcDbEntity
  8
1
  6
Continuous
 62
     2
100
AcDbLine
 10
78.14379014222183
 20
889.7049616023938
 30
0.0
 11
123.1437900911687
 21
889.7049616023938
 31
0.0
  0
LINE
  5
332
330
330
100
AcDbEntity
  8
1
  6
Continuous
 62
     2
100
AcDbLine
 10
78.14379014222183
 20
906.8999994530188
 30
0.0
 11
78.14379014222183
 21
888.2049616023938
 31
0.0
  0
LINE
  5
333
330
330
100
AcDbEntity
  8
1
  6
Continuous
 62
     2
100
AcDbLine
 10
123.1437900911687
 20
906.8999994530188
 30
0.0
 11
123.1437900911687
 21
888.2049616023938
 31
0.0
  0
SOLID
  5
334
330
330
100
AcDbEntity
  8
1
 62
     2
100
AcDbTrace
 10
81.64379014222183
 20
890.1657453439498
 30
0.0
 11
81.64379014222183
 21
889.2441778608379
 31
0.0
 12
78.14379014222183
 22
889.7049616023938
 32
0.0
 13
78.14379014222183
 23
889.7049616023938
 33
0.0
  0
SOLID
  5
335
330
330
100
AcDbEntity
  8
1
 62
     2
100
AcDbTrace
 10
119.6437900911687
 20
889.2441778608379
 30
0.0
 11
119.6437900911687
 21
890.1657453439498
 31
0.0
 12
123.1437900911687
 22
889.7049616023938
 32
0.0
 13
123.1437900911687
 23
889.7049616023938
 33
0.0
  0
MTEXT
  5
336
330
330
100
AcDbEntity
  8
1
 62
     3
100
AcDbMText
 10
99.37500000027
 20
891.2049616023938
 30
0.0
 40
3.5
 41
0.0
 71
     7
 72
     1
  1
45
  7
CONVERTER_11
 11
0.9999999999970619
 21
2.424068405545306E-6
 31
0.0
 73
     1
 44
0.60024009603842
  0
ENDBLK
  5
338
330
330
100
AcDbEntity
  8
0
100
AcDbBlockEnd
  0
ENDSEC
  0
SECTION
  2
ENTITIES
  0
INSERT
  5
86
330
1F
100
AcDbEntity
  8
1
100
AcDbBlockReference
  2
1
 10
0.0
 20
0.0
 30
0.0
  0
ENDSEC
  0
SECTION
  2
OBJECTS
  0
DICTIONARY
  5
C
330
0
100
AcDbDictionary
281
     1
  3
ACAD_GROUP
350
D
  3
ACAD_LAYOUT
350
1A
  3
ACAD_MATERIAL
350
3B
  3
ACAD_MLEADERSTYLE
350
49B
  3
ACAD_MLINESTYLE
350
17
  3
ACAD_PLOTSETTINGS
350
19
  3
ACAD_PLOTSTYLENAME
350
E
  3
ACAD_TABLESTYLE
350
49A
  3
ACAD_VISUALSTYLE
350
2A
  0
DICTIONARY
  5
D
102
{ACAD_REACTORS
330
C
102
}
330
C
100
AcDbDictionary
281
     1
  0
DICTIONARY
  5
1A
102
{ACAD_REACTORS
330
C
102
}
330
C
100
AcDbDictionary
281
     1
  3
Layout1
350
1E
  3
Layout2
350
26
  3
Model
350
22
  0
DICTIONARY
  5
3B
102
{ACAD_REACTORS
330
C
102
}
330
C
100
AcDbDictionary
281
     1
  3
ByBlock
350
3D
  3
ByLayer
350
3C
  3
Global
350
3E
  0
DICTIONARY
  5
49B
102
{ACAD_REACTORS
330
C
102
}
330
C
100
AcDbDictionary
281
     1
  0
DICTIONARY
  5
17
102
{ACAD_REACTORS
330
C
102
}
330
C
100
AcDbDictionary
281
     1
  3
Standard
350
18
  0
DICTIONARY
  5
19
102
{ACAD_REACTORS
330
C
102
}
330
C
100
AcDbDictionary
281
     1
  0
ACDBDICTIONARYWDFLT
  5
E
102
{ACAD_REACTORS
330
C
102
}
330
C
100
AcDbDictionary
281
     1
  3
Normal
350
F
100
AcDbDictionaryWithDefault
340
F
  0
DICTIONARY
  5
49A
102
{ACAD_REACTORS
330
C
102
}
330
C
100
AcDbDictionary
281
     1
  0
DICTIONARY
  5
2A
102
{ACAD_REACTORS
330
C
102
}
330
C
100
AcDbDictionary
281
     1
  3
2dWireframe
350
2F
  3
3D Hidden
350
31
  3
3dWireframe
350
30
  3
Basic
350
32
  3
Brighten
350
36
  3
ColorChange
350
3A
  3
Conceptual
350
34
  3
Dim
350
35
  3
Facepattern
350
39
  3
Flat
350
2B
  3
FlatWithEdges
350
2C
  3
Gouraud
350
2D
  3
GouraudWithEdges
350
2E
  3
Linepattern
350
38
  3
Realistic
350
33
  3
Thicken
350
37
  0
LAYOUT
  5
1E
102
{ACAD_REACTORS
330
1A
102
}
330
1A
100
AcDbPlotSettings
  1

  2
none_device
  4

  6

 40
0.0
 41
0.0
 42
0.0
 43
0.0
 44
0.0
 45
0.0
 46
0.0
 47
0.0
 48
0.0
 49
0.0
140
0.0
141
0.0
142
1.0
143
1.0
 70
   688
 72
     0
 73
     0
 74
     5
  7

 75
    16
 76
     0
 77
     2
 78
   300
147
1.0
148
0.0
149
0.0
100
AcDbLayout
  1
Layout1
 70
     1
 71
     1
 10
0.0
 20
0.0
 11
12.0
 21
9.0
 12
0.0
 22
0.0
 32
0.0
 14
1.00000000000000E+20
 24
1.00000000000000E+20
 34
1.00000000000000E+20
 15
-1.00000000000000E+20
 25
-1.00000000000000E+20
 35
-1.00000000000000E+20
146
0.0
 13
0.0
 23
0.0
 33
0.0
 16
1.0
 26
0.0
 36
0.0
 17
0.0
 27
1.0
 37
0.0
 76
     0
330
1B
  0
LAYOUT
  5
26
102
{ACAD_REACTORS
330
1A
102
}
330
1A
100
AcDbPlotSettings
  1

  2
none_device
  4

  6

 40
0.0
 41
0.0
 42
0.0
 43
0.0
 44
0.0
 45
0.0
 46
0.0
 47
0.0
 48
0.0
 49
0.0
140
0.0
141
0.0
142
1.0
143
1.0
 70
   688
 72
     0
 73
     0
 74
     5
  7

 75
    16
 76
     0
 77
     2
 78
   300
147
1.0
148
0.0
149
0.0
100
AcDbLayout
  1
Layout2
 70
     1
 71
     2
 10
0.0
 20
0.0
 11
0.0
 21
0.0
 12
0.0
 22
0.0
 32
0.0
 14
0.0
 24
0.0
 34
0.0
 15
0.0
 25
0.0
 35
0.0
146
0.0
 13
0.0
 23
0.0
 33
0.0
 16
1.0
 26
0.0
 36
0.0
 17
0.0
 27
1.0
 37
0.0
 76
     0
330
23
  0
LAYOUT
  5
22
102
{ACAD_REACTORS
330
1A
102
}
330
1A
100
AcDbPlotSettings
  1

  2
none_device
  4

  6

 40
0.0
 41
0.0
 42
0.0
 43
0.0
 44
0.0
 45
0.0
 46
0.0
 47
0.0
 48
0.0
 49
0.0
140
0.0
141
0.0
142
1.0
143
1.0
 70
  1712
 72
     0
 73
     0
 74
     0
  7

 75
     0
 76
     0
 77
     2
 78
   300
147
1.0
148
0.0
149
0.0
100
AcDbLayout
  1
Model
 70
     1
 71
     0
 10
0.0
 20
0.0
 11
12.0
 21
9.0
 12
0.0
 22
0.0
 32
0.0
 14
-22.64379001429631
 24
774.9125702980463
 34
0.0
 15
274.3562099857018
 25
984.9125702980464
 35
0.0
146
0.0
 13
0.0
 23
0.0
 33
0.0
 16
1.0
 26
0.0
 36
0.0
 17
0.0
 27
1.0
 37
0.0
 76
     0
330
1F
331
29
  0
MATERIAL
  5
3D
102
{ACAD_REACTORS
330
3B
102
}
102
{ACAD_XDICTIONARY
360
496
102
}
330
3B
100
AcDbMaterial
  1
ByBlock
  0
MATERIAL
  5
3C
102
{ACAD_REACTORS
330
3B
102
}
102
{ACAD_XDICTIONARY
360
494
102
}
330
3B
100
AcDbMaterial
  1
ByLayer
  0
MATERIAL
  5
3E
102
{ACAD_REACTORS
330
3B
102
}
102
{ACAD_XDICTIONARY
360
498
102
}
330
3B
100
AcDbMaterial
  1
Global
  0
MLINESTYLE
  5
18
102
{ACAD_REACTORS
330
17
102
}
330
17
100
AcDbMlineStyle
  2
Standard
 70
     0
  3

 62
   256
 51
90.0
 52
90.0
 71
     2
 49
0.5
 62
   256
  6
BYLAYER
 49
-0.5
 62
   256
  6
BYLAYER
  0
ACDBPLACEHOLDER
  5
F
102
{ACAD_REACTORS
330
E
102
}
330
E
  0
VISUALSTYLE
  5
2F
102
{ACAD_REACTORS
330
2A
102
}
102
{ACAD_XDICTIONARY
360
47C
102
}
330
2A
100
AcDbVisualStyle
  2
2dWireframe
 70
     4
 71
     0
 72
     2
 73
     0
 90
        0
 40
-0.6
 41
-30.0
 62
     5
 63
     7
421
 16777215
 74
     1
 91
        4
 64
     7
 65
   257
 75
     1
175
     1
 42
1.0
 92
        0
 66
   257
 43
1.0
 76
     1
 77
     6
 78
     2
 67
     7
 79
     5
170
     0
171
     0
290
     0
174
     0
 93
        1
 44
0.0
173
     0
291
     0
 45
0.0
1001
ACAD
1000
AcDbSavedByObjectVersion
1070
     0
  0
VISUALSTYLE
  5
31
102
{ACAD_REACTORS
330
2A
102
}
102
{ACAD_XDICTIONARY
360
480
102
}
330
2A
100
AcDbVisualStyle
  2
3D Hidden
 70
     6
 71
     1
 72
     2
 73
     2
 90
        0
 40
-0.6
 41
-30.0
 62
     5
 63
     7
421
 16777215
 74
     2
 91
        2
 64
     7
 65
   257
 75
     2
175
     1
 42
40.0
 92
        0
 66
   257
 43
1.0
 76
     1
 77
     6
 78
     2
 67
     7
 79
     3
170
     0
171
     0
290
     0
174
     0
 93
        1
 44
0.0
173
     0
291
     0
 45
0.0
1001
ACAD
1000
AcDbSavedByObjectVersion
1070
     0
  0
VISUALSTYLE
  5
30
102
{ACAD_REACTORS
330
2A
102
}
102
{ACAD_XDICTIONARY
360
47E
102
}
330
2A
100
AcDbVisualStyle
  2
3dWireframe
 70
     5
 71
     0
 72
     2
 73
     0
 90
        0
 40
-0.6
 41
-30.0
 62
     5
 63
     7
421
 16777215
 74
     1
 91
        4
 64
     7
 65
   257
 75
     1
175
     1
 42
1.0
 92
        0
 66
   257
 43
1.0
 76
     1
 77
     6
 78
     2
 67
     7
 79
     5
170
     0
171
     0
290
     0
174
     0
 93
        1
 44
0.0
173
     0
291
     0
 45
0.0
1001
ACAD
1000
AcDbSavedByObjectVersion
1070
     0
  0
VISUALSTYLE
  5
32
102
{ACAD_REACTORS
330
2A
102
}
102
{ACAD_XDICTIONARY
360
482
102
}
330
2A
100
AcDbVisualStyle
  2
Basic
 70
     7
 71
     1
 72
     0
 73
     1
 90
        0
 40
-0.6
 41
-30.0
 62
     5
 63
     7
421
 16777215
 74
     0
 91
        4
 64
     7
 65
   257
 75
     1
175
     1
 42
1.0
 92
        8
 66
     7
 43
1.0
 76
     1
 77
     6
 78
     2
 67
     7
 79
     5
170
     0
171
     0
290
     0
174
     0
 93
        1
 44
0.0
173
     0
291
     1
 45
0.0
1001
ACAD
1000
AcDbSavedByObjectVersion
1070
     0
  0
VISUALSTYLE
  5
36
102
{ACAD_REACTORS
330
2A
102
}
102
{ACAD_XDICTIONARY
360
48A
102
}
330
2A
100
AcDbVisualStyle
  2
Brighten
 70
    12
 71
     2
 72
     2
 73
     0
 90
        0
 40
-0.6
 41
-30.0
 62
     5
 63
     7
421
 16777215
 74
     1
 91
        4
 64
     7
 65
   257
 75
     1
175
     1
 42
1.0
 92
        8
 66
     7
 43
1.0
 76
     1
 77
     6
 78
     2
 67
     7
 79
     5
170
     0
171
     0
290
     0
174
     0
 93
        1
 44
50.0
173
     0
291
     1
 45
0.0
1001
ACAD
1000
AcDbSavedByObjectVersion
1070
     0
  0
VISUALSTYLE
  5
3A
102
{ACAD_REACTORS
330
2A
102
}
102
{ACAD_XDICTIONARY
360
492
102
}
330
2A
100
AcDbVisualStyle
  2
ColorChange
 70
    16
 71
     2
 72
     2
 73
     3
 90
        0
 40
-0.6
 41
-30.0
 62
     5
 63
     8
421
  8421504
 74
     1
 91
        4
 64
     7
 65
   257
 75
     1
175
     1
 42
1.0
 92
        8
 66
     8
424
  8421504
 43
1.0
 76
     1
 77
     6
 78
     2
 67
     7
 79
     5
170
     0
171
     0
290
     0
174
     0
 93
        1
 44
0.0
173
     0
291
     1
 45
0.0
1001
ACAD
1000
AcDbSavedByObjectVersion
1070
     0
  0
VISUALSTYLE
  5
34
102
{ACAD_REACTORS
330
2A
102
}
102
{ACAD_XDICTIONARY
360
486
102
}
330
2A
100
AcDbVisualStyle
  2
Conceptual
 70
     9
 71
     3
 72
     2
 73
     0
 90
        0
 40
-0.6
 41
-30.0
 62
     5
 63
     7
421
 16777215
 74
     2
 91
        2
 64
     7
 65
   257
 75
     1
175
     1
 42
40.0
 92
        8
 66
     7
 43
1.0
 76
     1
 77
     6
 78
     2
 67
     7
 79
     3
170
     0
171
     0
290
     0
174
     0
 93
        1
 44
0.0
173
     0
291
     0
 45
0.0
1001
ACAD
1000
AcDbSavedByObjectVersion
1070
     0
  0
VISUALSTYLE
  5
35
102
{ACAD_REACTORS
330
2A
102
}
102
{ACAD_XDICTIONARY
360
488
102
}
330
2A
100
AcDbVisualStyle
  2
Dim
 70
    11
 71
     2
 72
     2
 73
     0
 90
        0
 40
-0.6
 41
-30.0
 62
     5
 63
     7
421
 16777215
 74
     1
 91
        4
 64
     7
 65
   257
 75
     1
175
     1
 42
1.0
 92
        8
 66
     7
 43
1.0
 76
     1
 77
     6
 78
     2
 67
     7
 79
     5
170
     0
171
     0
290
     0
174
     0
 93
        1
 44
-50.0
173
     0
291
     1
 45
0.0
1001
ACAD
1000
AcDbSavedByObjectVersion
1070
     0
  0
VISUALSTYLE
  5
39
102
{ACAD_REACTORS
330
2A
102
}
102
{ACAD_XDICTIONARY
360
490
102
}
330
2A
100
AcDbVisualStyle
  2
Facepattern
 70
    15
 71
     2
 72
     2
 73
     0
 90
        0
 40
-0.6
 41
-30.0
 62
     5
 63
     7
421
 16777215
 74
     1
 91
        4
 64
     7
 65
   257
 75
     1
175
     1
 42
1.0
 92
        8
 66
     7
 43
1.0
 76
     1
 77
     6
 78
     2
 67
     7
 79
     5
170
     0
171
     0
290
     0
174
     0
 93
        1
 44
0.0
173
     0
291
     1
 45
0.0
1001
ACAD
1000
AcDbSavedByObjectVersion
1070
     0
  0
VISUALSTYLE
  5
2B
102
{ACAD_REACTORS
330
2A
102
}
102
{ACAD_XDICTIONARY
360
474
102
}
330
2A
100
AcDbVisualStyle
  2
Flat
 70
     0
 71
     2
 72
     1
 73
     1
 90
        2
 40
-0.6
 41
30.0
 62
     5
 63
     7
421
 16777215
 74
     0
 91
        4
 64
     7
 65
   257
 75
     1
175
     1
 42
1.0
 92
        8
 66
     7
 43
1.0
 76
     1
 77
     6
 78
     2
 67
     7
 79
     5
170
     0
171
     0
290
     0
174
     0
 93
       13
 44
0.0
173
     0
291
     1
 45
0.0
1001
ACAD
1000
AcDbSavedByObjectVersion
1070
     0
  0
VISUALSTYLE
  5
2C
102
{ACAD_REACTORS
330
2A
102
}
102
{ACAD_XDICTIONARY
360
476
102
}
330
2A
100
AcDbVisualStyle
  2
FlatWithEdges
 70
     1
 71
     2
 72
     1
 73
     1
 90
        2
 40
-0.6
 41
30.0
 62
     5
 63
     7
421
 16777215
 74
     1
 91
        4
 64
     7
 65
   257
 75
     1
175
     1
 42
1.0
 92
        0
 66
   257
 43
1.0
 76
     1
 77
     6
 78
     2
 67
     7
 79
     5
170
     0
171
     0
290
     0
174
     0
 93
       13
 44
0.0
173
     0
291
     1
 45
0.0
1001
ACAD
1000
AcDbSavedByObjectVersion
1070
     0
  0
VISUALSTYLE
  5
2D
102
{ACAD_REACTORS
330
2A
102
}
102
{ACAD_XDICTIONARY
360
478
102
}
330
2A
100
AcDbVisualStyle
  2
Gouraud
 70
     2
 71
     2
 72
     2
 73
     1
 90
        2
 40
-0.6
 41
30.0
 62
     5
 63
     7
421
 16777215
 74
     0
 91
        4
 64
     7
 65
   257
 75
     1
175
     1
 42
1.0
 92
        0
 66
     7
 43
1.0
 76
     1
 77
     6
 78
     2
 67
     7
 79
     5
170
     0
171
     0
290
     0
174
     0
 93
       13
 44
0.0
173
     0
291
     1
 45
0.0
1001
ACAD
1000
AcDbSavedByObjectVersion
1070
     0
  0
VISUALSTYLE
  5
2E
102
{ACAD_REACTORS
330
2A
102
}
102
{ACAD_XDICTIONARY
360
47A
102
}
330
2A
100
AcDbVisualStyle
  2
GouraudWithEdges
 70
     3
 71
     2
 72
     2
 73
     1
 90
        2
 40
-0.6
 41
30.0
 62
     5
 63
     7
421
 16777215
 74
     1
 91
        4
 64
     7
 65
   257
 75
     1
175
     1
 42
1.0
 92
        0
 66
   257
 43
1.0
 76
     1
 77
     6
 78
     2
 67
     7
 79
     5
170
     0
171
     0
290
     0
174
     0
 93
       13
 44
0.0
173
     0
291
     1
 45
0.0
1001
ACAD
1000
AcDbSavedByObjectVersion
1070
     0
  0
VISUALSTYLE
  5
38
102
{ACAD_REACTORS
330
2A
102
}
102
{ACAD_XDICTIONARY
360
48E
102
}
330
2A
100
AcDbVisualStyle
  2
Linepattern
 70
    14
 71
     2
 72
     2
 73
     0
 90
        0
 40
-0.6
 41
-30.0
 62
     5
 63
     7
421
 16777215
 74
     1
 91
        4
 64
     7
 65
   257
 75
     7
175
     7
 42
1.0
 92
        8
 66
     7
 43
1.0
 76
     1
 77
     6
 78
     2
 67
     7
 79
     5
170
     0
171
     0
290
     0
174
     0
 93
        1
 44
0.0
173
     0
291
     1
 45
0.0
1001
ACAD
1000
AcDbSavedByObjectVersion
1070
     0
  0
VISUALSTYLE
  5
33
102
{ACAD_REACTORS
330
2A
102
}
102
{ACAD_XDICTIONARY
360
484
102
}
330
2A
100
AcDbVisualStyle
  2
Realistic
 70
     8
 71
     2
 72
     2
 73
     0
 90
        0
 40
-0.6
 41
-30.0
 62
     5
 63
     7
421
 16777215
 74
     1
 91
        0
 64
     7
 65
   257
 75
     1
175
     1
 42
1.0
 92
        8
 66
     8
424
  7895160
 43
1.0
 76
     1
 77
     6
 78
     2
 67
     7
 79
     5
170
     0
171
     0
290
     0
174
     0
 93
       13
 44
0.0
173
     0
291
     0
 45
0.0
1001
ACAD
1000
AcDbSavedByObjectVersion
1070
     0
  0
VISUALSTYLE
  5
37
102
{ACAD_REACTORS
330
2A
102
}
102
{ACAD_XDICTIONARY
360
48C
102
}
330
2A
100
AcDbVisualStyle
  2
Thicken
 70
    13
 71
     2
 72
     2
 73
     0
 90
        0
 40
-0.6
 41
-30.0
 62
     5
 63
     7
421
 16777215
 74
     1
 91
        4
 64
     7
 65
   257
 75
     1
175
     1
 42
1.0
 92
       12
 66
     7
 43
1.0
 76
     1
 77
     6
 78
     2
 67
     7
 79
     5
170
     0
171
     0
290
     0
174
     0
 93
        1
 44
0.0
173
     0
291
     1
 45
0.0
1001
ACAD
1000
AcDbSavedByObjectVersion
1070
     0
  0
DICTIONARY
  5
496
330
3D
100
AcDbDictionary
280
     1
281
     1
  3
ACAD_XREC_ROUNDTRIP
360
497
  0
DICTIONARY
  5
494
330
3C
100
AcDbDictionary
280
     1
281
     1
  3
ACAD_XREC_ROUNDTRIP
360
495
  0
DICTIONARY
  5
498
330
3E
100
AcDbDictionary
280
     1
281
     1
  3
ACAD_XREC_ROUNDTRIP
360
499
  0
DICTIONARY
  5
47C
330
2F
100
AcDbDictionary
280
     1
281
     1
  3
ACAD_XREC_ROUNDTRIP
360
47D
  0
DICTIONARY
  5
480
330
31
100
AcDbDictionary
280
     1
281
     1
  3
ACAD_XREC_ROUNDTRIP
360
481
  0
DICTIONARY
  5
47E
330
30
100
AcDbDictionary
280
     1
281
     1
  3
ACAD_XREC_ROUNDTRIP
360
47F
  0
DICTIONARY
  5
482
330
32
100
AcDbDictionary
280
     1
281
     1
  3
ACAD_XREC_ROUNDTRIP
360
483
  0
DICTIONARY
  5
48A
330
36
100
AcDbDictionary
280
     1
281
     1
  3
ACAD_XREC_ROUNDTRIP
360
48B
  0
DICTIONARY
  5
492
330
3A
100
AcDbDictionary
280
     1
281
     1
  3
ACAD_XREC_ROUNDTRIP
360
493
  0
DICTIONARY
  5
486
330
34
100
AcDbDictionary
280
     1
281
     1
  3
ACAD_XREC_ROUNDTRIP
360
487
  0
DICTIONARY
  5
488
330
35
100
AcDbDictionary
280
     1
281
     1
  3
ACAD_XREC_ROUNDTRIP
360
489
  0
DICTIONARY
  5
490
330
39
100
AcDbDictionary
280
     1
281
     1
  3
ACAD_XREC_ROUNDTRIP
360
491
  0
DICTIONARY
  5
474
330
2B
100
AcDbDictionary
280
     1
281
     1
  3
ACAD_XREC_ROUNDTRIP
360
475
  0
DICTIONARY
  5
476
330
2C
100
AcDbDictionary
280
     1
281
     1
  3
ACAD_XREC_ROUNDTRIP
360
477
  0
DICTIONARY
  5
478
330
2D
100
AcDbDictionary
280
     1
281
     1
  3
ACAD_XREC_ROUNDTRIP
360
479
  0
DICTIONARY
  5
47A
330
2E
100
AcDbDictionary
280
     1
281
     1
  3
ACAD_XREC_ROUNDTRIP
360
47B
  0
DICTIONARY
  5
48E
330
38
100
AcDbDictionary
280
     1
281
     1
  3
ACAD_XREC_ROUNDTRIP
360
48F
  0
DICTIONARY
  5
484
330
33
100
AcDbDictionary
280
     1
281
     1
  3
ACAD_XREC_ROUNDTRIP
360
485
  0
DICTIONARY
  5
48C
330
37
100
AcDbDictionary
280
     1
281
     1
  3
ACAD_XREC_ROUNDTRIP
360
48D
  0
XRECORD
  5
497
102
{ACAD_REACTORS
330
496
102
}
330
496
100
AcDbXrecord
280
     1
102
MATERIAL
148
0.0
149
0.0
149
0.0
 93
        0
 94
      127
282
     0
 72
     1
 77
     1
171
     1
175
     1
179
     1
273
     0
  0
XRECORD
  5
495
102
{ACAD_REACTORS
330
494
102
}
330
494
100
AcDbXrecord
280
     1
102
MATERIAL
148
0.0
149
0.0
149
0.0
 93
        0
 94
      127
282
     0
 72
     1
 77
     1
171
     1
175
     1
179
     1
273
     0
  0
XRECORD
  5
499
102
{ACAD_REACTORS
330
498
102
}
330
498
100
AcDbXrecord
280
     1
102
MATERIAL
148
0.0
149
0.0
149
0.0
 93
        0
 94
      127
282
     0
 72
     1
 77
     1
171
     1
175
     1
179
     1
273
     0
  0
XRECORD
  5
47D
102
{ACAD_REACTORS
330
47C
102
}
330
47C
100
AcDbXrecord
280
     1
102
RTVSPropertyOp0
 70
     1
102
RTVSPropertyOp1
 70
     1
102
RTVSPropertyOp2
 70
     1
102
RTVSPropertyOp3
 70
     1
102
RTVSPropertyOp4
 70
     1
102
RTVSPropertyOp5
 70
     1
102
RTVSPropertyOp6
 70
     1
102
RTVSPropertyOp7
 70
     1
102
RTVSPropertyOp8
 70
     1
102
RTVSPropertyOp9
 70
     1
102
RTVSPropertyOp10
 70
     1
102
RTVSPropertyOp11
 70
     1
102
RTVSPropertyOp12
 70
     1
102
RTVSPropertyOp13
 70
     1
102
RTVSPropertyOp14
 70
     1
102
RTVSPropertyOp15
 70
     1
102
RTVSPropertyOp16
 70
     1
102
RTVSPropertyOp17
 70
     1
102
RTVSPropertyOp18
 70
     1
102
RTVSPropertyOp19
 70
     1
102
RTVSPropertyOp20
 70
     1
102
RTVSPropertyOp21
 70
     1
102
RTVSPropertyOp22
 70
     1
102
RTVSPropertyOp23
 70
     1
102
RTVSPropertyOp24
 70
     1
102
RTVSPropertyOp25
 70
     1
102
RTVSPropertyOp26
 70
     1
102
RTVSPropertyOp27
 70
     1
102
RTVSPropertyOp28
 70
     1
102
RTVSPropertyOp29
 70
     1
102
RTVSPropertyOp30
 70
     1
102
RTVSPropertyOp31
 70
     1
102
RTVSPropertyOp32
 70
     1
  0
XRECORD
  5
481
102
{ACAD_REACTORS
330
480
102
}
330
480
100
AcDbXrecord
280
     1
102
RTVSPropertyOp0
 70
     1
102
RTVSPropertyOp1
 70
     1
102
RTVSPropertyOp2
 70
     1
102
RTVSPropertyOp3
 70
     1
102
RTVSPropertyOp4
 70
     1
102
RTVSPropertyOp5
 70
     1
102
RTVSPropertyOp6
 70
     1
102
RTVSPropertyOp7
 70
     1
102
RTVSPropertyOp8
 70
     1
102
RTVSPropertyOp9
 70
     1
102
RTVSPropertyOp10
 70
     1
102
RTVSPropertyOp11
 70
     1
102
RTVSPropertyOp12
 70
     1
102
RTVSPropertyOp13
 70
     1
102
RTVSPropertyOp14
 70
     1
102
RTVSPropertyOp15
 70
     1
102
RTVSPropertyOp16
 70
     1
102
RTVSPropertyOp17
 70
     1
102
RTVSPropertyOp18
 70
     1
102
RTVSPropertyOp19
 70
     1
102
RTVSPropertyOp20
 70
     1
102
RTVSPropertyOp21
 70
     1
102
RTVSPropertyOp22
 70
     1
102
RTVSPropertyOp23
 70
     1
102
RTVSPropertyOp24
 70
     1
102
RTVSPropertyOp25
 70
     1
102
RTVSPropertyOp26
 70
     1
102
RTVSPropertyOp27
 70
     1
102
RTVSPropertyOp28
 70
     1
102
RTVSPropertyOp29
 70
     1
102
RTVSPropertyOp30
 70
     1
102
RTVSPropertyOp31
 70
     1
102
RTVSPropertyOp32
 70
     1
  0
XRECORD
  5
47F
102
{ACAD_REACTORS
330
47E
102
}
330
47E
100
AcDbXrecord
280
     1
102
RTVSPropertyOp0
 70
     1
102
RTVSPropertyOp1
 70
     1
102
RTVSPropertyOp2
 70
     1
102
RTVSPropertyOp3
 70
     1
102
RTVSPropertyOp4
 70
     1
102
RTVSPropertyOp5
 70
     1
102
RTVSPropertyOp6
 70
     1
102
RTVSPropertyOp7
 70
     1
102
RTVSPropertyOp8
 70
     1
102
RTVSPropertyOp9
 70
     1
102
RTVSPropertyOp10
 70
     1
102
RTVSPropertyOp11
 70
     1
102
RTVSPropertyOp12
 70
     1
102
RTVSPropertyOp13
 70
     1
102
RTVSPropertyOp14
 70
     1
102
RTVSPropertyOp15
 70
     1
102
RTVSPropertyOp16
 70
     1
102
RTVSPropertyOp17
 70
     1
102
RTVSPropertyOp18
 70
     1
102
RTVSPropertyOp19
 70
     1
102
RTVSPropertyOp20
 70
     1
102
RTVSPropertyOp21
 70
     1
102
RTVSPropertyOp22
 70
     1
102
RTVSPropertyOp23
 70
     1
102
RTVSPropertyOp24
 70
     1
102
RTVSPropertyOp25
 70
     1
102
RTVSPropertyOp26
 70
     1
102
RTVSPropertyOp27
 70
     1
102
RTVSPropertyOp28
 70
     1
102
RTVSPropertyOp29
 70
     1
102
RTVSPropertyOp30
 70
     1
102
RTVSPropertyOp31
 70
     1
102
RTVSPropertyOp32
 70
     1
  0
XRECORD
  5
483
102
{ACAD_REACTORS
330
482
102
}
330
482
100
AcDbXrecord
280
     1
102
RTVSPropertyOp0
 70
     1
102
RTVSPropertyOp1
 70
     1
102
RTVSPropertyOp2
 70
     1
102
RTVSPropertyOp3
 70
     1
102
RTVSPropertyOp4
 70
     1
102
RTVSPropertyOp5
 70
     1
102
RTVSPropertyOp6
 70
     1
102
RTVSPropertyOp7
 70
     1
102
RTVSPropertyOp8
 70
     1
102
RTVSPropertyOp9
 70
     1
102
RTVSPropertyOp10
 70
     1
102
RTVSPropertyOp11
 70
     1
102
RTVSPropertyOp12
 70
     1
102
RTVSPropertyOp13
 70
     1
102
RTVSPropertyOp14
 70
     1
102
RTVSPropertyOp15
 70
     1
102
RTVSPropertyOp16
 70
     1
102
RTVSPropertyOp17
 70
     1
102
RTVSPropertyOp18
 70
     1
102
RTVSPropertyOp19
 70
     1
102
RTVSPropertyOp20
 70
     1
102
RTVSPropertyOp21
 70
     1
102
RTVSPropertyOp22
 70
     1
102
RTVSPropertyOp23
 70
     1
102
RTVSPropertyOp24
 70
     1
102
RTVSPropertyOp25
 70
     1
102
RTVSPropertyOp26
 70
     1
102
RTVSPropertyOp27
 70
     1
102
RTVSPropertyOp28
 70
     1
102
RTVSPropertyOp29
 70
     1
102
RTVSPropertyOp30
 70
     1
102
RTVSPropertyOp31
 70
     1
102
RTVSPropertyOp32
 70
     1
  0
XRECORD
  5
48B
102
{ACAD_REACTORS
330
48A
102
}
330
48A
100
AcDbXrecord
280
     1
102
RTVSPropertyOp0
 70
     1
102
RTVSPropertyOp1
 70
     1
102
RTVSPropertyOp2
 70
     1
102
RTVSPropertyOp3
 70
     1
102
RTVSPropertyOp4
 70
     1
102
RTVSPropertyOp5
 70
     1
102
RTVSPropertyOp6
 70
     1
102
RTVSPropertyOp7
 70
     1
102
RTVSPropertyOp8
 70
     1
102
RTVSPropertyOp9
 70
     1
102
RTVSPropertyOp10
 70
     1
102
RTVSPropertyOp11
 70
     1
102
RTVSPropertyOp12
 70
     1
102
RTVSPropertyOp13
 70
     1
102
RTVSPropertyOp14
 70
     1
102
RTVSPropertyOp15
 70
     1
102
RTVSPropertyOp16
 70
     1
102
RTVSPropertyOp17
 70
     1
102
RTVSPropertyOp18
 70
     1
102
RTVSPropertyOp19
 70
     1
102
RTVSPropertyOp20
 70
     1
102
RTVSPropertyOp21
 70
     1
102
RTVSPropertyOp22
 70
     1
102
RTVSPropertyOp23
 70
     1
102
RTVSPropertyOp24
 70
     1
102
RTVSPropertyOp25
 70
     1
102
RTVSPropertyOp26
 70
     1
102
RTVSPropertyOp27
 70
     1
102
RTVSPropertyOp28
 70
     1
102
RTVSPropertyOp29
 70
     1
102
RTVSPropertyOp30
 70
     1
102
RTVSPropertyOp31
 70
     1
102
RTVSPropertyOp32
 70
     1
  0
XRECORD
  5
493
102
{ACAD_REACTORS
330
492
102
}
330
492
100
AcDbXrecord
280
     1
102
RTVSPropertyOp0
 70
     1
102
RTVSPropertyOp1
 70
     1
102
RTVSPropertyOp2
 70
     1
102
RTVSPropertyOp3
 70
     1
102
RTVSPropertyOp4
 70
     1
102
RTVSPropertyOp5
 70
     1
102
RTVSPropertyOp6
 70
     1
102
RTVSPropertyOp7
 70
     1
102
RTVSPropertyOp8
 70
     1
102
RTVSPropertyOp9
 70
     1
102
RTVSPropertyOp10
 70
     1
102
RTVSPropertyOp11
 70
     1
102
RTVSPropertyOp12
 70
     1
102
RTVSPropertyOp13
 70
     1
102
RTVSPropertyOp14
 70
     1
102
RTVSPropertyOp15
 70
     1
102
RTVSPropertyOp16
 70
     1
102
RTVSPropertyOp17
 70
     1
102
RTVSPropertyOp18
 70
     1
102
RTVSPropertyOp19
 70
     1
102
RTVSPropertyOp20
 70
     1
102
RTVSPropertyOp21
 70
     1
102
RTVSPropertyOp22
 70
     1
102
RTVSPropertyOp23
 70
     1
102
RTVSPropertyOp24
 70
     1
102
RTVSPropertyOp25
 70
     1
102
RTVSPropertyOp26
 70
     1
102
RTVSPropertyOp27
 70
     1
102
RTVSPropertyOp28
 70
     1
102
RTVSPropertyOp29
 70
     1
102
RTVSPropertyOp30
 70
     1
102
RTVSPropertyOp31
 70
     1
102
RTVSPropertyOp32
 70
     1
  0
XRECORD
  5
487
102
{ACAD_REACTORS
330
486
102
}
330
486
100
AcDbXrecord
280
     1
102
RTVSPropertyOp0
 70
     1
102
RTVSPropertyOp1
 70
     1
102
RTVSPropertyOp2
 70
     1
102
RTVSPropertyOp3
 70
     1
102
RTVSPropertyOp4
 70
     1
102
RTVSPropertyOp5
 70
     1
102
RTVSPropertyOp6
 70
     1
102
RTVSPropertyOp7
 70
     1
102
RTVSPropertyOp8
 70
     1
102
RTVSPropertyOp9
 70
     1
102
RTVSPropertyOp10
 70
     1
102
RTVSPropertyOp11
 70
     1
102
RTVSPropertyOp12
 70
     1
102
RTVSPropertyOp13
 70
     1
102
RTVSPropertyOp14
 70
     1
102
RTVSPropertyOp15
 70
     1
102
RTVSPropertyOp16
 70
     1
102
RTVSPropertyOp17
 70
     1
102
RTVSPropertyOp18
 70
     1
102
RTVSPropertyOp19
 70
     1
102
RTVSPropertyOp20
 70
     1
102
RTVSPropertyOp21
 70
     1
102
RTVSPropertyOp22
 70
     1
102
RTVSPropertyOp23
 70
     1
102
RTVSPropertyOp24
 70
     1
102
RTVSPropertyOp25
 70
     1
102
RTVSPropertyOp26
 70
     1
102
RTVSPropertyOp27
 70
     1
102
RTVSPropertyOp28
 70
     1
102
RTVSPropertyOp29
 70
     1
102
RTVSPropertyOp30
 70
     1
102
RTVSPropertyOp31
 70
     1
102
RTVSPropertyOp32
 70
     1
  0
XRECORD
  5
489
102
{ACAD_REACTORS
330
488
102
}
330
488
100
AcDbXrecord
280
     1
102
RTVSPropertyOp0
 70
     1
102
RTVSPropertyOp1
 70
     1
102
RTVSPropertyOp2
 70
     1
102
RTVSPropertyOp3
 70
     1
102
RTVSPropertyOp4
 70
     1
102
RTVSPropertyOp5
 70
     1
102
RTVSPropertyOp6
 70
     1
102
RTVSPropertyOp7
 70
     1
102
RTVSPropertyOp8
 70
     1
102
RTVSPropertyOp9
 70
     1
102
RTVSPropertyOp10
 70
     1
102
RTVSPropertyOp11
 70
     1
102
RTVSPropertyOp12
 70
     1
102
RTVSPropertyOp13
 70
     1
102
RTVSPropertyOp14
 70
     1
102
RTVSPropertyOp15
 70
     1
102
RTVSPropertyOp16
 70
     1
102
RTVSPropertyOp17
 70
     1
102
RTVSPropertyOp18
 70
     1
102
RTVSPropertyOp19
 70
     1
102
RTVSPropertyOp20
 70
     1
102
RTVSPropertyOp21
 70
     1
102
RTVSPropertyOp22
 70
     1
102
RTVSPropertyOp23
 70
     1
102
RTVSPropertyOp24
 70
     1
102
RTVSPropertyOp25
 70
     1
102
RTVSPropertyOp26
 70
     1
102
RTVSPropertyOp27
 70
     1
102
RTVSPropertyOp28
 70
     1
102
RTVSPropertyOp29
 70
     1
102
RTVSPropertyOp30
 70
     1
102
RTVSPropertyOp31
 70
     1
102
RTVSPropertyOp32
 70
     1
  0
XRECORD
  5
491
102
{ACAD_REACTORS
330
490
102
}
330
490
100
AcDbXrecord
280
     1
102
RTVSPropertyOp0
 70
     1
102
RTVSPropertyOp1
 70
     1
102
RTVSPropertyOp2
 70
     1
102
RTVSPropertyOp3
 70
     1
102
RTVSPropertyOp4
 70
     1
102
RTVSPropertyOp5
 70
     1
102
RTVSPropertyOp6
 70
     1
102
RTVSPropertyOp7
 70
     1
102
RTVSPropertyOp8
 70
     1
102
RTVSPropertyOp9
 70
     1
102
RTVSPropertyOp10
 70
     1
102
RTVSPropertyOp11
 70
     1
102
RTVSPropertyOp12
 70
     1
102
RTVSPropertyOp13
 70
     1
102
RTVSPropertyOp14
 70
     1
102
RTVSPropertyOp15
 70
     1
102
RTVSPropertyOp16
 70
     1
102
RTVSPropertyOp17
 70
     1
102
RTVSPropertyOp18
 70
     1
102
RTVSPropertyOp19
 70
     1
102
RTVSPropertyOp20
 70
     1
102
RTVSPropertyOp21
 70
     1
102
RTVSPropertyOp22
 70
     1
102
RTVSPropertyOp23
 70
     1
102
RTVSPropertyOp24
 70
     1
102
RTVSPropertyOp25
 70
     1
102
RTVSPropertyOp26
 70
     1
102
RTVSPropertyOp27
 70
     1
102
RTVSPropertyOp28
 70
     1
102
RTVSPropertyOp29
 70
     1
102
RTVSPropertyOp30
 70
     1
102
RTVSPropertyOp31
 70
     1
102
RTVSPropertyOp32
 70
     1
  0
XRECORD
  5
475
102
{ACAD_REACTORS
330
474
102
}
330
474
100
AcDbXrecord
280
     1
102
RTVSPropertyOp0
 70
     1
102
RTVSPropertyOp1
 70
     1
102
RTVSPropertyOp2
 70
     1
102
RTVSPropertyOp3
 70
     1
102
RTVSPropertyOp4
 70
     1
102
RTVSPropertyOp5
 70
     1
102
RTVSPropertyOp6
 70
     1
102
RTVSPropertyOp7
 70
     1
102
RTVSPropertyOp8
 70
     1
102
RTVSPropertyOp9
 70
     1
102
RTVSPropertyOp10
 70
     1
102
RTVSPropertyOp11
 70
     1
102
RTVSPropertyOp12
 70
     1
102
RTVSPropertyOp13
 70
     1
102
RTVSPropertyOp14
 70
     1
102
RTVSPropertyOp15
 70
     1
102
RTVSPropertyOp16
 70
     1
102
RTVSPropertyOp17
 70
     1
102
RTVSPropertyOp18
 70
     1
102
RTVSPropertyOp19
 70
     1
102
RTVSPropertyOp20
 70
     1
102
RTVSPropertyOp21
 70
     1
102
RTVSPropertyOp22
 70
     1
102
RTVSPropertyOp23
 70
     1
102
RTVSPropertyOp24
 70
     1
102
RTVSPropertyOp25
 70
     1
102
RTVSPropertyOp26
 70
     1
102
RTVSPropertyOp27
 70
     1
102
RTVSPropertyOp28
 70
     1
102
RTVSPropertyOp29
 70
     1
102
RTVSPropertyOp30
 70
     1
102
RTVSPropertyOp31
 70
     1
102
RTVSPropertyOp32
 70
     1
  0
XRECORD
  5
477
102
{ACAD_REACTORS
330
476
102
}
330
476
100
AcDbXrecord
280
     1
102
RTVSPropertyOp0
 70
     1
102
RTVSPropertyOp1
 70
     1
102
RTVSPropertyOp2
 70
     1
102
RTVSPropertyOp3
 70
     1
102
RTVSPropertyOp4
 70
     1
102
RTVSPropertyOp5
 70
     1
102
RTVSPropertyOp6
 70
     1
102
RTVSPropertyOp7
 70
     1
102
RTVSPropertyOp8
 70
     1
102
RTVSPropertyOp9
 70
     1
102
RTVSPropertyOp10
 70
     1
102
RTVSPropertyOp11
 70
     1
102
RTVSPropertyOp12
 70
     1
102
RTVSPropertyOp13
 70
     1
102
RTVSPropertyOp14
 70
     1
102
RTVSPropertyOp15
 70
     1
102
RTVSPropertyOp16
 70
     1
102
RTVSPropertyOp17
 70
     1
102
RTVSPropertyOp18
 70
     1
102
RTVSPropertyOp19
 70
     1
102
RTVSPropertyOp20
 70
     1
102
RTVSPropertyOp21
 70
     1
102
RTVSPropertyOp22
 70
     1
102
RTVSPropertyOp23
 70
     1
102
RTVSPropertyOp24
 70
     1
102
RTVSPropertyOp25
 70
     1
102
RTVSPropertyOp26
 70
     1
102
RTVSPropertyOp27
 70
     1
102
RTVSPropertyOp28
 70
     1
102
RTVSPropertyOp29
 70
     1
102
RTVSPropertyOp30
 70
     1
102
RTVSPropertyOp31
 70
     1
102
RTVSPropertyOp32
 70
     1
  0
XRECORD
  5
479
102
{ACAD_REACTORS
330
478
102
}
330
478
100
AcDbXrecord
280
     1
102
RTVSPropertyOp0
 70
     1
102
RTVSPropertyOp1
 70
     1
102
RTVSPropertyOp2
 70
     1
102
RTVSPropertyOp3
 70
     1
102
RTVSPropertyOp4
 70
     1
102
RTVSPropertyOp5
 70
     1
102
RTVSPropertyOp6
 70
     1
102
RTVSPropertyOp7
 70
     1
102
RTVSPropertyOp8
 70
     1
102
RTVSPropertyOp9
 70
     1
102
RTVSPropertyOp10
 70
     1
102
RTVSPropertyOp11
 70
     1
102
RTVSPropertyOp12
 70
     1
102
RTVSPropertyOp13
 70
     1
102
RTVSPropertyOp14
 70
     1
102
RTVSPropertyOp15
 70
     1
102
RTVSPropertyOp16
 70
     1
102
RTVSPropertyOp17
 70
     1
102
RTVSPropertyOp18
 70
     1
102
RTVSPropertyOp19
 70
     1
102
RTVSPropertyOp20
 70
     1
102
RTVSPropertyOp21
 70
     1
102
RTVSPropertyOp22
 70
     1
102
RTVSPropertyOp23
 70
     1
102
RTVSPropertyOp24
 70
     1
102
RTVSPropertyOp25
 70
     1
102
RTVSPropertyOp26
 70
     1
102
RTVSPropertyOp27
 70
     1
102
RTVSPropertyOp28
 70
     1
102
RTVSPropertyOp29
 70
     1
102
RTVSPropertyOp30
 70
     1
102
RTVSPropertyOp31
 70
     1
102
RTVSPropertyOp32
 70
     1
  0
XRECORD
  5
47B
102
{ACAD_REACTORS
330
47A
102
}
330
47A
100
AcDbXrecord
280
     1
102
RTVSPropertyOp0
 70
     1
102
RTVSPropertyOp1
 70
     1
102
RTVSPropertyOp2
 70
     1
102
RTVSPropertyOp3
 70
     1
102
RTVSPropertyOp4
 70
     1
102
RTVSPropertyOp5
 70
     1
102
RTVSPropertyOp6
 70
     1
102
RTVSPropertyOp7
 70
     1
102
RTVSPropertyOp8
 70
     1
102
RTVSPropertyOp9
 70
     1
102
RTVSPropertyOp10
 70
     1
102
RTVSPropertyOp11
 70
     1
102
RTVSPropertyOp12
 70
     1
102
RTVSPropertyOp13
 70
     1
102
RTVSPropertyOp14
 70
     1
102
RTVSPropertyOp15
 70
     1
102
RTVSPropertyOp16
 70
     1
102
RTVSPropertyOp17
 70
     1
102
RTVSPropertyOp18
 70
     1
102
RTVSPropertyOp19
 70
     1
102
RTVSPropertyOp20
 70
     1
102
RTVSPropertyOp21
 70
     1
102
RTVSPropertyOp22
 70
     1
102
RTVSPropertyOp23
 70
     1
102
RTVSPropertyOp24
 70
     1
102
RTVSPropertyOp25
 70
     1
102
RTVSPropertyOp26
 70
     1
102
RTVSPropertyOp27
 70
     1
102
RTVSPropertyOp28
 70
     1
102
RTVSPropertyOp29
 70
     1
102
RTVSPropertyOp30
 70
     1
102
RTVSPropertyOp31
 70
     1
102
RTVSPropertyOp32
 70
     1
  0
XRECORD
  5
48F
102
{ACAD_REACTORS
330
48E
102
}
330
48E
100
AcDbXrecord
280
     1
102
RTVSPropertyOp0
 70
     1
102
RTVSPropertyOp1
 70
     1
102
RTVSPropertyOp2
 70
     1
102
RTVSPropertyOp3
 70
     1
102
RTVSPropertyOp4
 70
     1
102
RTVSPropertyOp5
 70
     1
102
RTVSPropertyOp6
 70
     1
102
RTVSPropertyOp7
 70
     1
102
RTVSPropertyOp8
 70
     1
102
RTVSPropertyOp9
 70
     1
102
RTVSPropertyOp10
 70
     1
102
RTVSPropertyOp11
 70
     1
102
RTVSPropertyOp12
 70
     1
102
RTVSPropertyOp13
 70
     1
102
RTVSPropertyOp14
 70
     1
102
RTVSPropertyOp15
 70
     1
102
RTVSPropertyOp16
 70
     1
102
RTVSPropertyOp17
 70
     1
102
RTVSPropertyOp18
 70
     1
102
RTVSPropertyOp19
 70
     1
102
RTVSPropertyOp20
 70
     1
102
RTVSPropertyOp21
 70
     1
102
RTVSPropertyOp22
 70
     1
102
RTVSPropertyOp23
 70
     1
102
RTVSPropertyOp24
 70
     1
102
RTVSPropertyOp25
 70
     1
102
RTVSPropertyOp26
 70
     1
102
RTVSPropertyOp27
 70
     1
102
RTVSPropertyOp28
 70
     1
102
RTVSPropertyOp29
 70
     1
102
RTVSPropertyOp30
 70
     1
102
RTVSPropertyOp31
 70
     1
102
RTVSPropertyOp32
 70
     1
  0
XRECORD
  5
485
102
{ACAD_REACTORS
330
484
102
}
330
484
100
AcDbXrecord
280
     1
102
RTVSPropertyOp0
 70
     1
102
RTVSPropertyOp1
 70
     1
102
RTVSPropertyOp2
 70
     1
102
RTVSPropertyOp3
 70
     1
102
RTVSPropertyOp4
 70
     1
102
RTVSPropertyOp5
 70
     1
102
RTVSPropertyOp6
 70
     1
102
RTVSPropertyOp7
 70
     1
102
RTVSPropertyOp8
 70
     1
102
RTVSPropertyOp9
 70
     1
102
RTVSPropertyOp10
 70
     1
102
RTVSPropertyOp11
 70
     1
102
RTVSPropertyOp12
 70
     1
102
RTVSPropertyOp13
 70
     1
102
RTVSPropertyOp14
 70
     1
102
RTVSPropertyOp15
 70
     1
102
RTVSPropertyOp16
 70
     1
102
RTVSPropertyOp17
 70
     1
102
RTVSPropertyOp18
 70
     1
102
RTVSPropertyOp19
 70
     1
102
RTVSPropertyOp20
 70
     1
102
RTVSPropertyOp21
 70
     1
102
RTVSPropertyOp22
 70
     1
102
RTVSPropertyOp23
 70
     1
102
RTVSPropertyOp24
 70
     1
102
RTVSPropertyOp25
 70
     1
102
RTVSPropertyOp26
 70
     1
102
RTVSPropertyOp27
 70
     1
102
RTVSPropertyOp28
 70
     1
102
RTVSPropertyOp29
 70
     1
102
RTVSPropertyOp30
 70
     1
102
RTVSPropertyOp31
 70
     1
102
RTVSPropertyOp32
 70
     1
  0
XRECORD
  5
48D
102
{ACAD_REACTORS
330
48C
102
}
330
48C
100
AcDbXrecord
280
     1
102
RTVSPropertyOp0
 70
     1
102
RTVSPropertyOp1
 70
     1
102
RTVSPropertyOp2
 70
     1
102
RTVSPropertyOp3
 70
     1
102
RTVSPropertyOp4
 70
     1
102
RTVSPropertyOp5
 70
     1
102
RTVSPropertyOp6
 70
     1
102
RTVSPropertyOp7
 70
     1
102
RTVSPropertyOp8
 70
     1
102
RTVSPropertyOp9
 70
     1
102
RTVSPropertyOp10
 70
     1
102
RTVSPropertyOp11
 70
     1
102
RTVSPropertyOp12
 70
     1
102
RTVSPropertyOp13
 70
     1
102
RTVSPropertyOp14
 70
     1
102
RTVSPropertyOp15
 70
     1
102
RTVSPropertyOp16
 70
     1
102
RTVSPropertyOp17
 70
     1
102
RTVSPropertyOp18
 70
     1
102
RTVSPropertyOp19
 70
     1
102
RTVSPropertyOp20
 70
     1
102
RTVSPropertyOp21
 70
     1
102
RTVSPropertyOp22
 70
     1
102
RTVSPropertyOp23
 70
     1
102
RTVSPropertyOp24
 70
     1
102
RTVSPropertyOp25
 70
     1
102
RTVSPropertyOp26
 70
     1
102
RTVSPropertyOp27
 70
     1
102
RTVSPropertyOp28
 70
     1
102
RTVSPropertyOp29
 70
     1
102
RTVSPropertyOp30
 70
     1
102
RTVSPropertyOp31
 70
     1
102
RTVSPropertyOp32
 70
     1
  0
ENDSEC
  0
EOF
